<?xml version="1.0" encoding="utf-8"?>
<!-- Generator: Adobe Illustrator 15.0.0, SVG Export Plug-In  -->
<!DOCTYPE svg [
	<!ENTITY ns_flows "http://ns.adobe.com/Flows/1.0/">
]>
<svg version="1.2" baseProfile="tiny"
	 xmlns="http://www.w3.org/2000/svg" xmlns:xlink="http://www.w3.org/1999/xlink" xmlns:a="http://ns.adobe.com/AdobeSVGViewerExtensions/3.0/"
	 x="0px" y="0px" width="153px" height="64px" viewBox="-1.24 -1.789 153 64" xml:space="preserve">
<font horiz-adv-x="1000">
<!-- Copyright (c) 2011-2012, Carolina Giovagnoli (huertatipografica.com.ar), with Reserved Font Name 'Andada' -->
<!-- Copyright: Copyright 2015 Adobe System Incorporated. All rights reserved. -->
<font-face font-family="Andada-Regular" units-per-em="1000" underline-position="-100" underline-thickness="50"/>
<missing-glyph horiz-adv-x="224"/>
<glyph unicode="A" horiz-adv-x="664" d="M660,54l-62,10l-39,85l-206,566l-58,-10l-179,-545l-43,-99l-63,-17l4,-49C14,-5 112,0 149,0l86,0l5,54l-70,10l10,63l32,105l220,0l21,-60l27,-108l-73,-20l4,-49C411,-5 523,0 554,0l101,0M318,557l94,-271l-182,-4z"/>
<glyph unicode="C" horiz-adv-x="610" d="M569,170l-59,-2C510,168 510,131 508,121C508,111 501,88 494,65C452,52 399,43 358,43C215,43 145,180 145,353C145,526 215,662 359,662C397,662 446,652 485,639C491,619 497,598 497,589l0,-47l59,-4l10,148C503,702 441,720 359,720C149,720 42,570 42,352C42,134 149,-15 359,-15C440,-15 512,3 575,19z"/>
<glyph unicode="D" horiz-adv-x="721" d="M334,715C268,715 211,707 147,705C113,707 49,710 49,710l-5,-54l77,-12C123,631 130,585 130,568l0,-431C130,120 123,74 121,61l-79,-16l5,-50C47,-5 144,0 165,0C225,0 294,-6 334,-6C550,-6 679,139 679,352C679,575 557,715 334,715M335,655C502,655 580,519 580,352C580,187 502,53 335,53C291,53 254,55 228,57C227,61 221,119 221,167l0,371C221,578 226,631 228,650C253,653 289,655 335,655z"/>
<glyph unicode="E" horiz-adv-x="588" d="M44,656l77,-12C123,631 130,585 130,568l0,-431C130,120 123,74 121,61l-79,-16l5,-50C47,-5 145,0 165,0l237,0C422,0 516,-4 516,-4l19,18l15,151l-55,5C493,154 483,118 480,103C478,94 469,80 459,66C437,62 403,57 372,57l-144,0C226,76 221,127 221,167l0,168C238,337 255,338 264,338l53,0C337,338 397,332 397,332l9,-67l48,6C454,271 451,330 451,380C451,400 452,464 452,464l-46,5l-9,-66C397,403 357,394 337,394l-73,0C256,394 238,395 221,396l0,142C221,577 226,628 228,649l131,0C387,649 418,646 440,644C450,631 459,617 460,610C464,595 469,572 471,556l58,5l-7,136l-19,18C503,715 409,705 389,705l-224,0C145,705 49,710 49,710z"/>
<glyph unicode="I" horiz-adv-x="363" d="M308,710C308,710 251,705 171,705C151,705 55,710 55,710l-5,-54l77,-12C129,631 136,585 136,568l0,-431C136,120 129,74 127,61l-79,-16l5,-50C53,-5 151,0 171,0C251,0 317,-5 317,-5l7,59l-90,7C232,75 227,125 227,167l0,371C227,580 232,630 234,644l78,7z"/>
<glyph unicode="L" horiz-adv-x="534" d="M302,710C302,710 245,705 165,705C145,705 49,710 49,710l-5,-54l77,-12C123,631 130,585 130,568l0,-431C130,120 123,74 121,61l-79,-16l5,-50C47,-5 145,0 165,0l211,0C396,0 490,-4 490,-4l19,18l15,151l-55,5C467,154 458,118 454,103C453,96 443,80 433,66C411,62 377,57 346,57l-118,0C226,72 221,126 221,167l0,371C221,580 226,630 228,644l78,7z"/>
<glyph unicode="N" horiz-adv-x="761" d="M741,710C741,710 664,705 585,705l-82,2l-6,-60l79,-6C579,623 585,574 585,558l0,-395l-262,367C308,552 226,685 226,685l-20,21l-44,-1C142,705 46,710 46,710l-5,-54l80,-12C123,629 130,584 130,568l0,-431C130,120 123,74 121,61l-79,-16l5,-50C47,-5 135,0 155,0C235,0 278,-5 278,-5l7,59l-81,7C202,75 197,125 197,167l0,389l394,-563l60,0C651,-7 652,257 652,297l0,231C652,568 663,622 667,641l79,16z"/>
<glyph unicode="P" horiz-adv-x="586" d="M333,715C286,715 202,706 148,705C114,706 49,710 49,710l-5,-54l77,-12C123,631 130,585 130,568l0,-431C130,120 123,74 121,61l-79,-16l5,-50C47,-5 145,0 165,0C245,0 315,-5 315,-5l7,59l-94,7C226,75 221,125 221,167l0,125C249,291 281,291 310,291C444,291 556,367 556,502C556,644 471,715 333,715M221,538C221,573 225,634 228,660C254,663 278,665 291,665C395,665 462,610 462,502C462,394 394,341 290,341C272,341 247,343 221,345z"/>
<glyph unicode="S" horiz-adv-x="559" d="M65,192l-15,-154C50,38 136,-15 270,-15C402,-15 509,49 509,182C509,409 163,397 163,554C163,628 215,665 277,665C322,665 354,661 396,643C402,620 409,596 409,587l0,-44l59,-6l14,151C418,704 345,720 280,720C156,720 63,655 63,535C63,319 404,334 404,170C404,89 352,45 272,45C223,45 177,58 142,72C137,94 131,126 131,138l0,48z"/>
<glyph unicode="a" horiz-adv-x="516" d="M363,0C443,0 492,-5 492,-5l7,59l-69,7C430,61 420,117 420,167l0,124C420,444 374,503 255,503C195,503 134,495 74,479l11,-136l58,3l0,41l7,42C175,441 212,449 245,449C308,449 339,404 339,311l0,-33l-160,-27C89,236 45,190 45,118C45,40 101,-10 190,-10C255,-10 323,28 349,79M339,227l0,-60C329,102 273,54 206,54C159,54 133,83 133,133C133,168 156,193 196,200z"/>
<glyph unicode="b" horiz-adv-x="554" d="M10,707l76,-16C86,691 96,635 96,615l0,-478C96,117 88,26 88,26C134,9 202,-10 284,-10C427,-10 514,113 514,256C514,394 449,503 316,503C247,503 202,465 177,427l0,158C177,635 184,738 184,738l-19,18l-58,0C87,756 15,760 15,760M301,442C396,442 422,353 422,254C422,144 386,46 278,46C243,46 211,51 184,58C182,71 177,123 177,167l0,107C177,357 217,442 301,442z"/>
<glyph unicode="c" horiz-adv-x="466" d="M270,503C117,503 40,399 40,246C40,93 116,-10 269,-10C373,-10 438,44 438,44l-28,47C410,91 348,55 270,55C170,55 134,146 134,246C134,346 170,446 270,446C299,446 323,440 352,416C356,402 359,389 359,382l0,-36l58,-3l10,125C367,488 329,503 270,503z"/>
<glyph unicode="," horiz-adv-x="220" d="M105,-10C105,-52 77,-86 34,-104l10,-32C132,-117 175,-34 175,40C175,87 159,129 112,129C73,129 50,99 50,60C50,24 69,-7 105,-10z"/>
<glyph unicode="d" horiz-adv-x="563" d="M536,54l-69,7C467,61 457,117 457,167l0,418C457,635 464,738 464,738l-19,18l-58,0C367,756 283,760 283,760l-5,-53l88,-16C366,691 376,635 376,615l0,-136C323,498 293,503 251,503C121,503 41,405 41,247C41,87 117,-10 242,-10C295,-10 366,34 386,80l14,-80C480,0 529,-5 529,-5M376,207C376,111 329,54 249,54C177,54 133,127 133,246C133,370 180,442 261,442C303,442 338,431 376,406z"/>
<glyph unicode="e" horiz-adv-x="478" d="M258,503C111,503 40,395 40,245C40,94 119,-10 270,-10C383,-10 447,50 447,50l-28,46C419,96 355,55 270,55C180,55 137,147 134,237l299,0l17,33C450,410 398,503 258,503M254,451C325,451 358,395 358,324C358,319 357,304 357,304l-222,-17C142,370 172,451 254,451z"/>
<glyph unicode="&#xE9;" horiz-adv-x="478" d="M258,503C111,503 40,395 40,245C40,94 119,-10 270,-10C383,-10 447,50 447,50l-28,46C419,96 355,55 270,55C180,55 137,147 134,237l299,0l17,33C450,410 398,503 258,503M254,451C325,451 358,395 358,324C358,319 357,304 357,304l-222,-17C142,370 172,451 254,451M347,755l-180,-150l33,-41l73,60C288,635 394,695 394,695z"/>
<glyph unicode="f" horiz-adv-x="351" d="M298,770C183,770 122,702 122,597l0,-86C99,497 75,493 42,482l3,-42l77,0l0,-303C122,117 112,61 112,61l-76,-16l5,-50C41,-5 132,0 152,0C232,0 301,-5 301,-5l7,59l-98,7C210,61 203,117 203,167l0,273l135,0l5,54l-140,0l0,72C203,656 208,717 298,717C305,717 317,716 325,716C331,695 337,673 337,664l0,-36l53,-3l11,135C401,760 339,770 298,770z"/>
<glyph unicode="g" horiz-adv-x="505" d="M474,440l0,58l-122,-19C322,494 287,503 247,503C131,503 54,431 54,322C54,250 88,194 144,164C95,123 72,98 72,84C72,49 87,26 123,11C70,-31 32,-72 32,-90C32,-185 100,-235 230,-235C370,-235 484,-149 484,-44C484,4 468,34 439,43C401,55 314,64 246,73C171,82 152,88 152,108C152,114 160,128 179,150C200,144 222,141 247,141C363,141 440,213 440,322C440,372 424,415 394,446M161,-1C180,-6 203,-10 230,-13l130,-17C390,-34 399,-45 399,-75C399,-136 340,-178 258,-178C162,-178 118,-147 118,-79C118,-60 126,-44 161,-1M247,452C318,452 353,409 353,322C353,235 318,192 247,192C176,192 141,235 141,322C141,408 177,452 247,452z"/>
<glyph unicode="h" horiz-adv-x="594" d="M20,707l76,-16C96,691 106,635 106,615l0,-478C106,117 98,70 96,61l-77,-16l5,-50C24,-5 115,0 135,0C215,0 264,-5 264,-5l7,59l-78,7C192,69 187,123 187,167l0,107C188,372 236,442 315,442C399,442 418,360 418,276l0,-139C418,112 413,83 408,61l-67,-16l5,-50C346,-5 428,0 448,0C528,0 577,-5 577,-5l7,59l-78,7C506,61 499,117 499,167l0,109C499,414 468,503 330,503C262,503 214,467 187,427l0,158C187,632 191,707 194,738l-19,18l-58,0C97,756 25,760 25,760z"/>
<glyph unicode="-" horiz-adv-x="282" d="M32,216l215,0l5,75l-222,0z"/>
<glyph unicode="i" horiz-adv-x="301" d="M288,54l-78,7C210,61 203,117 203,167l0,156C203,373 210,476 210,476l-19,18l-58,0C113,494 41,498 41,498l-5,-53l76,-16C112,429 122,373 122,353l0,-216C122,117 112,61 112,61l-76,-16l5,-50C41,-5 132,0 152,0C232,0 281,-5 281,-5M163,720C125,720 104,693 104,655C104,617 125,591 163,591C201,591 222,617 222,655C222,696 200,720 163,720z"/>
<glyph unicode="j" horiz-adv-x="279" d="M25,445l76,-16C101,429 111,373 111,353l0,-332C111,-19 35,-214 35,-214l36,-21C71,-235 192,-50 192,-10l0,333C192,373 199,476 199,476l-19,18l-58,0C102,494 30,498 30,498M141,720C103,720 82,693 82,655C82,617 103,591 141,591C179,591 200,617 200,655C200,696 178,720 141,720z"/>
<glyph unicode="l" horiz-adv-x="293" d="M20,707l76,-16C96,691 106,635 106,615l0,-478C106,117 98,70 96,61l-77,-16l5,-50C24,-5 115,0 135,0C215,0 264,-5 264,-5l7,59l-78,7C192,69 187,123 187,167l0,418C187,632 191,707 194,738l-19,18l-58,0C97,756 25,760 25,760z"/>
<glyph unicode="m" horiz-adv-x="890" d="M344,503C269,503 218,458 194,412l-6,64l-19,18l-36,0C113,494 41,498 41,498l-5,-53l76,-16C112,429 122,373 122,353l0,-221C120,109 112,61 112,61l-76,-16l5,-50C41,-5 132,0 152,0C232,0 281,-5 281,-5l7,59l-78,7C210,61 203,117 203,167l0,107C204,372 252,442 327,442C402,442 418,360 418,276l0,-139C418,112 413,83 408,61l-67,-16l5,-50C346,-5 428,0 448,0C528,0 577,-5 577,-5l7,59l-78,7C506,61 499,117 499,167l0,109l0,7C502,377 550,442 623,442C698,442 714,360 714,276l0,-139C714,112 709,83 704,61l-67,-16l5,-50C642,-5 724,0 744,0C824,0 873,-5 873,-5l7,59l-78,7C802,61 795,117 795,167l0,109C795,414 767,503 640,503C564,503 511,457 483,408C464,468 423,503 344,503z"/>
<glyph unicode="n" horiz-adv-x="610" d="M36,445l76,-16C112,429 122,373 122,353l0,-221C120,109 112,61 112,61l-76,-16l5,-50C41,-5 132,0 152,0C232,0 281,-5 281,-5l7,59l-78,7C210,61 203,117 203,167l0,107C204,372 252,442 331,442C415,442 434,360 434,276l0,-139C434,112 429,83 424,61l-67,-16l5,-50C362,-5 444,0 464,0C544,0 593,-5 593,-5l7,59l-78,7C522,61 515,117 515,167l0,109C515,414 484,503 346,503C270,503 218,458 194,412l-6,64l-19,18l-36,0C113,494 41,498 41,498z"/>
<glyph unicode="o" horiz-adv-x="540" d="M500,246C500,401 424,503 270,503C118,503 40,399 40,246C40,94 118,-10 270,-10C422,-10 500,94 500,246M406,246C406,143 373,47 270,47C167,47 134,143 134,246C134,349 167,446 270,446C373,446 406,349 406,246z"/>
<glyph unicode="p" horiz-adv-x="559" d="M314,503C260,503 194,461 173,412l-6,64l-19,18l-36,0C92,494 20,498 20,498l-5,-53l76,-16C91,429 101,373 101,353l0,-449C101,-119 91,-167 91,-167l-66,-16l5,-50C30,-233 102,-228 132,-228C212,-228 280,-233 280,-233l7,59l-98,7C189,-167 182,-111 182,-61l0,76C218,-1 255,-10 289,-10C422,-10 519,102 519,256C519,413 444,503 314,503M306,442C387,442 429,378 429,254C429,122 377,50 283,50C252,50 217,62 182,86l0,198C182,379 231,442 306,442z"/>
<glyph unicode="." horiz-adv-x="213" d="M104,129C63,129 40,100 40,59C40,18 63,-10 104,-10C145,-10 168,18 168,59C168,103 144,129 104,129z"/>
<glyph unicode="q" horiz-adv-x="543" d="M530,-174l-67,7C463,-167 456,-111 456,-61l0,383C456,372 464,467 464,467C357,496 317,503 250,503C124,503 40,400 40,247C40,87 116,-10 241,-10C287,-10 346,23 375,62l0,-153C375,-111 365,-167 365,-167l-97,-16l5,-50C273,-233 345,-228 375,-228C455,-228 523,-233 523,-233M248,54C176,54 132,127 132,246C132,365 182,442 260,442C298,442 333,438 368,431C370,416 375,369 375,352l0,-152C372,108 326,54 248,54z"/>
<glyph unicode="?" horiz-adv-x="403" d="M155,-10C193,-10 214,17 214,55C214,93 193,119 155,119C117,119 96,93 96,55C96,14 118,-10 155,-10M316,511C316,431 270,372 190,372C178,372 154,374 139,376l-26,-24l0,-129l4,-3C147,220 179,218 185,217l7,6l-4,88C313,311 410,385 410,510C410,646 326,727 190,727C131,727 85,712 33,688l12,-138l58,0l-2,36C101,593 103,630 107,644C136,666 163,670 191,670C277,670 316,597 316,511z"/>
<glyph unicode="&#x2019;" horiz-adv-x="192" d="M95,638C95,596 68,561 26,543l7,-24C117,537 163,616 163,686C163,730 142,770 98,770C61,770 34,738 34,701C34,665 59,638 95,638z"/>
<glyph unicode="r" horiz-adv-x="422" d="M188,476l-19,18l-36,0C113,494 41,498 41,498l-5,-53l76,-16C112,429 122,373 122,353l0,-216C122,117 112,61 112,61l-76,-16l5,-50C41,-5 132,0 152,0C232,0 301,-5 301,-5l7,59l-98,7C210,61 203,117 203,167l0,117C207,378 245,433 337,434l4,0C348,413 355,390 355,384l0,-53l58,-3l10,165C423,493 392,503 355,503C283,503 233,474 194,410z"/>
<glyph unicode="s" horiz-adv-x="422" d="M210,503C117,503 48,454 48,370C48,208 301,222 301,117C301,64 266,41 210,41C178,41 149,47 126,65C118,88 111,114 111,124l0,38l-58,3l-11,-136C42,29 108,-10 207,-10C316,-10 383,31 383,136C383,294 128,284 128,386C128,427 160,451 209,451C237,451 255,448 276,439C283,416 290,392 290,382l0,-36l58,-3l12,143C312,496 258,503 210,503z"/>
<glyph unicode=" " horiz-adv-x="224"/>
<glyph unicode="t" horiz-adv-x="344" d="M314,83C314,83 271,54 235,54C198,54 181,82 181,132l0,308l135,0l5,54l-140,0l0,103l-35,4C146,601 108,521 100,511C77,497 53,493 20,482l3,-42l77,0l0,-284C100,46 129,-10 224,-10C274,-10 310,17 342,42z"/>
<glyph unicode="2" horiz-adv-x="515" d="M243,662C173,662 125,653 57,626l13,-147l55,3l-2,45C123,537 128,562 133,578C167,598 196,606 233,606C301,606 348,557 348,486C348,399 314,353 36,73l14,-73l276,0C350,0 447,-3 447,-3l19,20l9,142l-55,4l-5,-47C413,111 410,102 401,81C336,74 320,73 317,73l-188,0C376,300 443,381 443,501C443,603 367,662 243,662z"/>
<glyph unicode="u" horiz-adv-x="592" d="M324,445l71,-16C395,429 405,373 405,353l0,-143C405,130 361,54 279,54C205,54 180,109 180,183l0,140C180,373 187,476 187,476l-19,18l-58,0C90,494 28,498 28,498l-5,-53l66,-16C89,429 99,373 99,353l0,-136C99,82 123,-10 261,-10C354,-10 397,45 416,78l13,-78C509,0 558,-5 558,-5l7,59l-69,7C496,61 486,117 486,167l0,156C486,373 493,476 493,476l-19,18l-58,0C396,494 329,498 329,498z"/>
<glyph unicode="v" horiz-adv-x="530" d="M521,441l-3,58C518,499 475,494 395,494C375,494 311,497 311,497l-5,-52l75,-11C374,402 366,364 361,351l-83,-248l-86,246C187,362 177,400 168,434l60,7l-3,58C225,499 175,494 95,494C75,494 6,497 6,497l-5,-52l61,-11C80,401 98,358 103,344C111,322 234,0 234,0l67,0l115,319C422,334 447,393 466,435z"/>
<glyph unicode="x" horiz-adv-x="543" d="M186,434l60,7l-3,58C243,499 196,494 116,494C96,494 34,497 34,497l-5,-52l43,-10l73,-82l78,-107l-68,-97l-81,-88l-62,-16l5,-50C17,-5 94,0 114,0C194,0 227,-5 227,-5l7,59l-63,7l31,54l60,86l62,-86l32,-55l-62,-15l5,-50C299,-5 381,0 401,0C481,0 534,-5 534,-5l7,59l-61,5l-88,90l-81,109l62,95l68,80l61,8l-3,58C499,499 452,494 372,494C352,494 295,497 295,497l-5,-52l64,-12l-25,-46l-55,-85l-59,85z"/>
<glyph unicode="z" horiz-adv-x="460" d="M54,478l-5,-139l58,-4l4,39C112,385 129,425 135,436C157,439 182,442 188,442l122,0C294,411 269,366 260,352l-124,-184C121,146 41,58 41,58l7,-58l243,0C311,0 401,-3 401,-3l18,19l9,127l-58,6C367,130 365,112 364,109C357,88 349,72 342,58C318,55 288,52 283,52l-125,0C175,84 199,128 208,142l122,185l86,109l-7,58l-242,0C147,494 72,497 72,497z"/>
<glyph unicode="0" horiz-adv-x="580" d="M50,326C50,146 117,-10 290,-10C463,-10 530,146 530,326C530,506 463,662 290,662C117,662 50,506 50,326M431,326C431,198 408,50 290,50C172,50 149,198 149,326C149,454 172,602 290,602C408,602 431,454 431,326z"/>
</font>

	<font horiz-adv-x="1000">
<!-- Copyright (c) 2011-2015, Omnibus-Type (www.omnibus-type.com omnibus.type@gmail.com) -->
<!-- Copyright: Copyright 2015 Adobe System Incorporated. All rights reserved. -->
<font-face font-family="Asap-MediumItalic" units-per-em="1000" underline-position="-100" underline-thickness="50"/>
<missing-glyph horiz-adv-x="515" d="M-20,0l500,0l74,700l-500,0M272,395l-144,255l340,0M93,605l144,-255l-198,-255M297,350l196,255l-54,-510M65,50l196,255l144,-255z"/>
<glyph unicode="A" horiz-adv-x="613" d="M366,702l-44,0C296,702 276,697 270,683l-296,-648C-30,27 -32,22 -32,17C-32,4 -15,-2 20,-2l27,0C70,-2 86,3 93,17l62,137l261,0l33,-137C453,3 471,-2 498,-2l31,0C563,-2 579,7 579,20C579,23 578,31 577,34l-162,649C412,697 392,702 366,702M330,550C330,529 332,508 337,488l52,-222l-185,0l101,222C313,507 320,529 326,550z"/>
<glyph unicode="R" horiz-adv-x="610" d="M332,700l-185,0C121,700 109,689 107,664l-67,-638C40,8 52,-2 90,-2l25,0C150,-2 168,8 170,26l27,260l58,0C325,286 348,266 365,213l58,-196C427,3 446,-2 473,-2l29,0C541,-2 557,6 558,18C558,22 557,27 555,34l-62,211C477,297 454,338 426,349l0,4C506,383 560,447 560,541C560,646 486,700 332,700M331,589C390,589 425,561 425,510C425,450 375,399 318,399l-108,0l20,190z"/>
<glyph unicode="a" horiz-adv-x="545" d="M519,99C515,99 504,93 491,93C472,93 459,99 459,129C459,149 497,498 497,501C497,516 484,524 451,524l-10,0C399,524 394,510 384,476C362,497 319,530 260,530C123,530 30,399 30,209C30,56 108,-8 194,-8C252,-8 303,24 336,77C345,18 383,-7 443,-7C472,-7 515,5 521,38C526,68 527,88 527,89C527,97 524,99 519,99M355,347C353,333 346,248 340,194C313,126 273,96 236,96C187,96 157,131 157,217C157,342 194,429 285,429C321,429 347,412 365,397C360,375 357,361 355,347z"/>
<glyph unicode="b" horiz-adv-x="569" d="M179,753l-19,0C125,753 106,744 104,725l-74,-703C30,7 43,-2 76,-2l11,0C126,-1 134,14 143,45C166,24 209,-7 269,-7C418,-7 519,125 519,315C519,468 431,530 335,530C282,530 234,505 200,456l29,270C229,741 215,753 179,753M293,427C355,427 392,394 392,307C392,182 348,94 244,94C207,94 180,110 163,124C167,148 170,174 174,199l14,132C216,397 256,427 293,427z"/>
<glyph unicode="d" horiz-adv-x="565" d="M536,99C532,99 521,93 508,93C489,93 476,100 476,129C476,147 538,726 538,726C538,741 523,753 488,753l-19,0C434,753 415,744 413,725l-26,-237C364,508 325,530 270,530C127,530 31,399 31,209C31,56 117,-7 209,-7C268,-7 320,24 352,78C362,19 399,-7 460,-7C489,-7 532,5 538,38C543,68 544,88 544,89C544,97 541,99 536,99M358,195C330,127 289,96 252,96C192,96 159,132 159,217C159,342 200,429 296,429C335,429 362,414 379,400z"/>
<glyph unicode="e" horiz-adv-x="539" d="M498,390C498,441 463,530 313,530C148,530 38,420 38,208C38,57 131,-7 270,-7C321,-7 427,8 441,61C445,78 447,122 448,126C448,139 444,139 440,139C428,139 369,93 285,93C216,93 167,118 165,214C191,210 221,207 263,207C375,207 498,254 498,390M171,296C185,369 221,430 303,430C346,430 374,409 374,375C374,319 298,296 227,296z"/>
<glyph unicode="i" horiz-adv-x="265" d="M180,753l-22,0C124,753 105,744 103,725l-8,-74C95,635 112,624 147,624l22,0C204,624 221,634 223,652l8,74C231,742 216,753 180,753M155,525l-20,0C101,525 82,516 80,497C79,497 41,141 41,108C41,27 80,-7 150,-7C179,-7 223,5 228,38C233,68 234,88 234,89C234,97 232,99 227,99C222,99 212,93 199,93C179,93 167,100 167,129C167,147 205,497 205,497C205,513 190,525 155,525z"/>
<glyph unicode="j" horiz-adv-x="276" d="M195,753l-22,0C139,753 120,744 118,725l-8,-74C110,635 127,624 162,624l22,0C219,624 236,634 238,652l8,74C246,742 231,753 195,753M170,525l-20,0C116,525 97,515 95,497l-58,-554C33,-98 17,-111 -10,-111C-36,-111 -47,-102 -53,-102C-61,-102 -69,-117 -69,-172C-69,-205 -26,-212 9,-212C89,-212 150,-166 161,-59l59,556C220,513 205,525 170,525z"/>
<glyph unicode="l" horiz-adv-x="297" d="M193,754l-32,0C128,754 115,745 113,727C113,726 49,145 49,109C49,27 88,-7 159,-7C188,-7 231,5 237,38C242,68 242,88 242,89C242,97 240,99 235,99C230,99 220,93 207,93C188,93 175,100 175,129C175,143 237,729 237,729C237,744 226,754 193,754z"/>
<glyph unicode="m" horiz-adv-x="848" d="M811,99C806,99 796,93 782,93C763,93 750,100 750,129C750,148 777,382 777,402C777,484 737,530 645,530C581,530 517,493 481,442C469,498 428,530 353,530C292,530 230,495 194,446C193,479 187,518 164,518C120,518 70,509 70,487C70,475 71,463 71,439C71,398 55,261 31,25C31,11 46,-2 81,-2l19,0C135,-2 154,8 156,26l31,309C215,396 256,426 296,426C339,426 358,405 358,366C358,354 323,25 323,25C323,11 338,-2 373,-2l19,0C427,-2 446,8 448,26l30,309C507,396 549,426 587,426C631,426 649,405 649,366C649,350 625,136 625,109C625,27 664,-7 734,-7C763,-7 806,5 812,38C817,68 818,88 818,89C818,97 816,99 811,99z"/>
<glyph unicode="n" horiz-adv-x="557" d="M520,99C515,99 505,93 492,93C472,93 459,100 459,129C459,148 486,382 486,402C486,484 446,530 354,530C292,530 228,494 190,444C190,481 184,518 160,518C116,518 66,509 66,487C66,475 67,463 67,439C67,398 51,261 27,25C27,11 42,-2 77,-2l19,0C131,-2 150,8 152,26C152,26 171,198 183,329C210,393 256,426 296,426C340,426 358,405 358,366C358,350 334,136 334,109C334,27 373,-7 443,-7C472,-7 516,5 521,38C526,68 527,88 527,89C527,97 525,99 520,99z"/>
<glyph unicode="o" horiz-adv-x="569" d="M307,530C106,530 37,374 37,210C37,69 110,-7 250,-7C416,-7 519,106 519,311C519,454 446,530 307,530M296,430C361,430 391,389 391,306C391,168 343,93 260,93C195,93 164,134 164,216C164,352 211,430 296,430z"/>
<glyph unicode="p" horiz-adv-x="573" d="M341,530C283,530 231,499 199,448l0,3C199,496 188,518 169,518C125,518 75,509 75,487C75,475 77,463 77,439C77,424 75,399 72,366l-57,-545C15,-194 30,-207 65,-207l19,0C118,-207 138,-197 140,-178l22,215C186,18 225,-7 280,-7C424,-7 522,125 522,315C522,467 435,530 341,530M253,93C215,93 187,111 171,124C178,199 186,271 191,328C219,395 260,427 298,427C357,427 394,391 394,308C394,182 353,93 253,93z"/>
<glyph unicode="r" horiz-adv-x="366" d="M325,530C271,530 232,492 204,450C204,484 197,518 173,518C129,518 79,509 79,487C79,474 80,460 80,439C80,419 78,387 75,363l-35,-338C40,11 55,-2 90,-2l19,0C144,-2 163,8 165,26C165,26 184,198 195,327C220,384 258,417 297,417C322,417 328,408 337,408C350,408 373,457 373,487C373,508 360,530 325,530z"/>
<glyph unicode="s" horiz-adv-x="413" d="M238,530C129,530 46,471 46,371C46,291 98,259 158,227C199,206 238,189 238,151C238,118 209,93 156,93C113,93 79,111 61,121C53,126 46,129 43,129C37,129 20,115 20,53C20,11 107,-7 166,-7C285,-7 366,58 366,160C366,243 312,277 246,310C204,332 175,346 175,378C175,409 198,430 243,430C272,430 295,421 312,414C320,411 326,409 330,409C347,409 376,456 376,475C376,517 289,530 238,530z"/>
<glyph unicode=" " horiz-adv-x="240"/>
<glyph unicode="t" horiz-adv-x="342" d="M193,650l-19,0C140,650 121,641 119,622l-11,-99l-31,0C50,523 44,488 44,455C44,433 50,422 67,422l31,0C98,422 66,142 66,117C66,23 123,-7 190,-7C223,-7 265,5 271,38C276,66 277,88 277,89C277,98 274,100 269,100C264,100 252,93 229,93C206,93 192,104 192,135C192,144 222,422 222,422l42,0C303,422 317,478 317,503C317,517 315,523 301,523l-68,0l10,99C243,638 229,650 193,650z"/>
<glyph unicode="u" horiz-adv-x="557" d="M521,99C516,99 506,93 492,93C473,93 460,100 460,129C460,147 498,497 498,497C498,513 483,525 448,525l-20,0C394,525 375,516 373,497C373,497 352,308 341,193C314,127 269,97 228,97C185,97 166,118 166,156C166,169 201,497 201,497C201,513 187,525 151,525l-19,0C97,525 78,516 76,497C76,497 39,148 39,121C39,39 78,-7 171,-7C235,-7 297,29 336,81C344,19 383,-7 444,-7C473,-7 516,5 522,38C527,68 528,88 528,89C528,97 525,99 521,99z"/>
</font>

	<font horiz-adv-x="1000">
<!-- Copyright (c) 2011-2015, Omnibus-Type (www.omnibus-type.com omnibus.type@gmail.com) -->
<!-- Copyright: Copyright 2015 Adobe System Incorporated. All rights reserved. -->
<font-face font-family="Asap-Bold" units-per-em="1000" underline-position="-100" underline-thickness="50"/>
<missing-glyph horiz-adv-x="514" d="M7,0l500,0l0,700l-500,0M257,395l-171,255l340,0M56,605l171,-255l-171,-255M287,350l169,255l0,-510M87,50l169,255l171,-255z"/>
<glyph unicode="A" horiz-adv-x="613" d="M333,702l-52,0C252,702 230,697 224,681l-220,-643C2,31 0,25 0,20C0,6 19,-2 61,-2l40,0C125,-2 142,4 147,19l40,122l236,0l40,-122C468,3 490,-2 519,-2l44,0C598,-2 613,6 613,20C613,25 612,31 610,38l-220,643C384,697 362,702 333,702M308,515C312,494 316,472 323,451l57,-178l-150,0l59,178C297,472 300,494 304,515z"/>
<glyph unicode="&#xC2;" horiz-adv-x="613" d="M313,895l-11,0C273,895 252,894 241,876l-65,-102C172,768 170,763 170,759C170,752 176,749 190,749l22,0C241,749 264,753 279,774l28,39l28,-40C348,754 374,749 403,749l22,0C438,749 445,752 445,759C445,763 443,768 439,774l-65,102C363,894 342,895 313,895M333,702l-52,0C252,702 230,697 224,681l-220,-643C2,31 0,25 0,20C0,6 19,-2 61,-2l40,0C125,-2 142,4 147,19l40,122l236,0l40,-122C468,3 490,-2 519,-2l44,0C598,-2 613,6 613,20C613,25 612,31 610,38l-220,643C384,697 362,702 333,702M308,515C312,494 316,472 323,451l57,-178l-150,0l59,178C297,472 300,494 304,515z"/>
<glyph unicode="&#xC0;" horiz-adv-x="613" d="M233,911C193,911 173,908 173,897C173,885 180,883 277,777C288,765 305,752 352,752C376,752 383,756 383,767C383,778 364,803 318,884C306,905 273,911 233,911M333,702l-52,0C252,702 230,697 224,681l-220,-643C2,31 0,25 0,20C0,6 19,-2 61,-2l40,0C125,-2 142,4 147,19l40,122l236,0l40,-122C468,3 490,-2 519,-2l44,0C598,-2 613,6 613,20C613,25 612,31 610,38l-220,643C384,697 362,702 333,702M308,515C312,494 316,472 323,451l57,-178l-150,0l59,178C297,472 300,494 304,515z"/>
<glyph unicode="B" horiz-adv-x="593" d="M307,700l-198,0C81,700 69,688 69,660l0,-620C69,12 81,0 109,0l212,0C490,0 571,74 571,203C571,280 516,351 436,367l-1,4C495,396 543,455 543,523C543,628 476,700 307,700M294,570C355,570 385,545 385,496C385,454 352,421 292,421l-69,0l0,149M305,290C374,290 413,264 413,212C413,160 379,131 321,131l-98,0l0,159z"/>
<glyph unicode="C" horiz-adv-x="619" d="M379,708C157,708 45,590 45,352C45,105 150,-8 374,-8C454,-8 597,16 597,76C597,93 570,163 538,163C523,163 469,123 374,123C259,123 203,201 203,351C203,501 258,576 376,576C471,576 511,544 523,544C548,544 588,610 588,638C588,680 467,708 379,708z"/>
<glyph unicode="D" horiz-adv-x="695" d="M333,700l-224,0C81,700 69,688 69,660l0,-620C69,12 81,0 109,0l224,0C539,0 653,124 653,350C653,576 539,700 333,700M333,569C440,569 495,492 495,350C495,208 440,131 333,131l-109,0l0,438z"/>
<glyph unicode="E" horiz-adv-x="546" d="M475,700l-366,0C81,700 69,688 69,660l0,-620C69,12 81,0 109,0l367,0C497,0 506,15 506,50l0,31C506,116 497,131 476,131l-253,0l0,162l225,0C469,293 478,308 478,343l0,31C478,409 469,424 448,424l-225,0l0,145l252,0C496,569 505,584 505,619l0,31C505,685 496,700 475,700z"/>
<glyph unicode="&#xC9;" horiz-adv-x="546" d="M375,911C335,911 302,905 290,884C244,803 225,778 225,767C225,756 232,752 256,752C303,752 320,765 331,777C428,883 435,885 435,897C435,908 415,911 375,911M475,700l-366,0C81,700 69,688 69,660l0,-620C69,12 81,0 109,0l367,0C497,0 506,15 506,50l0,31C506,116 497,131 476,131l-253,0l0,162l225,0C469,293 478,308 478,343l0,31C478,409 469,424 448,424l-225,0l0,145l252,0C496,569 505,584 505,619l0,31C505,685 496,700 475,700z"/>
<glyph unicode="&#xC8;" horiz-adv-x="546" d="M221,911C181,911 161,908 161,897C161,885 168,883 265,777C276,765 293,752 340,752C364,752 371,756 371,767C371,778 352,803 306,884C294,905 261,911 221,911M475,700l-366,0C81,700 69,688 69,660l0,-620C69,12 81,0 109,0l367,0C497,0 506,15 506,50l0,31C506,116 497,131 476,131l-253,0l0,162l225,0C469,293 478,308 478,343l0,31C478,409 469,424 448,424l-225,0l0,145l252,0C496,569 505,584 505,619l0,31C505,685 496,700 475,700z"/>
<glyph unicode="F" horiz-adv-x="503" d="M443,700l-334,0C81,700 69,688 69,660l0,-630C69,9 87,-2 129,-2l34,0C205,-2 223,9 223,30l0,262l213,0C457,292 466,307 466,342l0,31C466,408 457,423 436,423l-213,0l0,146l220,0C464,569 473,584 473,619l0,31C473,685 464,700 443,700z"/>
<glyph unicode="G" horiz-adv-x="672" d="M379,708C157,708 45,590 45,352C45,105 150,-8 374,-8C445,-8 607,2 607,71l0,278C607,377 595,389 567,389l-203,0C343,389 334,374 334,339l0,-32C334,272 343,257 364,257l88,0l0,-127C425,125 402,123 374,123C259,123 203,201 203,351C203,501 258,576 376,576C471,576 516,544 528,544C553,544 593,610 593,638C593,680 467,708 379,708z"/>
<glyph unicode="H" horiz-adv-x="733" d="M604,702l-35,0C527,702 509,691 509,670l0,-247l-270,0l0,247C239,691 221,702 179,702l-35,0C102,702 84,691 84,670l0,-640C84,9 102,-2 144,-2l35,0C221,-2 239,9 239,30l0,261l270,0l0,-261C509,9 527,-2 569,-2l35,0C646,-2 664,9 664,30l0,640C664,691 646,702 604,702z"/>
<glyph unicode="I" horiz-adv-x="282" d="M158,703l-35,0C81,703 63,691 63,670l0,-640C63,9 81,-3 123,-3l35,0C200,-3 218,9 218,30l0,640C218,691 200,703 158,703z"/>
<glyph unicode="J" horiz-adv-x="402" d="M276,703l-35,0C199,703 181,691 181,670l0,-443C181,154 157,123 97,123C65,123 51,131 41,131C10,128 0,56 0,38C0,-5 100,-8 124,-8C273,-8 336,75 336,202l0,468C336,691 318,703 276,703z"/>
<glyph unicode="L" horiz-adv-x="484" d="M163,702l-34,0C87,702 69,691 69,670l0,-630C69,12 81,0 109,0l337,0C467,0 476,15 476,50l0,31C476,116 467,131 446,131l-223,0l0,539C223,691 205,702 163,702z"/>
<glyph unicode="M" horiz-adv-x="843" d="M714,702l-52,0C633,702 610,695 599,675l-169,-296l-9,-17l-8,14l-168,299C234,695 211,702 182,702l-53,0C87,702 69,691 69,670l0,-640C69,9 87,-2 129,-2l29,0C200,-2 218,9 218,30l0,414l4,1l145,-259C376,174 388,167 407,167l29,0C455,167 467,174 476,186l145,259l4,-1l0,-414C625,9 643,-2 685,-2l29,0C756,-2 774,9 774,30l0,640C774,691 756,702 714,702z"/>
<glyph unicode="N" horiz-adv-x="719" d="M590,702l-29,0C519,702 501,691 501,670l0,-400l-27,41l-236,364C223,698 201,702 172,702l-43,0C87,702 69,691 69,670l0,-640C69,9 87,-2 129,-2l29,0C200,-2 218,9 218,30l0,405l268,-410C501,2 523,-2 552,-2l38,0C632,-2 650,9 650,30l0,640C650,691 632,702 590,702z"/>
<glyph unicode="O" horiz-adv-x="731" d="M366,708C160,708 45,581 45,350C45,119 160,-8 366,-8C572,-8 686,119 686,350C686,581 572,708 366,708M366,576C473,576 528,497 528,350C528,203 473,123 366,123C259,123 203,203 203,350C203,497 259,576 366,576z"/>
<glyph unicode="P" horiz-adv-x="570" d="M319,700l-210,0C81,700 69,688 69,660l0,-630C69,9 87,-2 129,-2l34,0C205,-2 223,9 223,30l0,232l106,0C383,262 557,288 557,481C557,674 408,700 319,700M312,569C350,569 399,553 399,481C399,409 350,394 312,394l-89,0l0,175z"/>
<glyph unicode="Q" horiz-adv-x="731" d="M366,708C160,708 45,581 45,350C45,177 109,62 227,16C634,-145 631,-146 641,-146C673,-146 696,-60 696,-44C696,-37 691,-31 682,-28l-153,55l0,4C630,83 686,192 686,350C686,581 572,708 366,708M366,576C473,576 528,497 528,350C528,200 473,119 366,119C259,119 203,200 203,350C203,497 259,576 366,576z"/>
<glyph unicode="R" horiz-adv-x="610" d="M304,700l-195,0C81,700 69,688 69,660l0,-630C69,9 87,-2 129,-2l34,0C205,-2 223,9 223,30l0,244l39,0C327,274 343,254 363,214l79,-195C448,3 471,-2 500,-2l41,0C582,-2 601,6 601,18C601,23 599,29 596,37l-88,220C491,300 461,339 436,349l0,4C505,379 553,435 553,512C553,632 477,700 304,700M311,569C363,569 395,539 395,493C395,445 359,407 318,407l-95,0l0,162z"/>
<glyph unicode="S" horiz-adv-x="500" d="M273,708C156,708 36,650 36,506C36,386 102,338 171,305C246,270 325,253 325,193C325,136 274,123 231,123C151,123 102,169 84,169C63,169 22,111 22,80C22,46 105,-8 257,-8C366,-8 483,48 483,211C483,347 383,388 301,422C243,445 194,465 194,520C194,543 209,576 287,576C354,576 385,551 398,551C422,551 453,611 453,638C453,671 379,708 273,708z"/>
<glyph unicode="T" horiz-adv-x="549" d="M511,700l-473,0C17,700 8,685 8,650l0,-31C8,584 17,569 38,569l159,0l0,-539C197,9 215,-2 257,-2l35,0C334,-2 352,9 352,30l0,539l159,0C532,569 541,584 541,619l0,31C541,685 532,700 511,700z"/>
<glyph unicode="U" horiz-adv-x="712" d="M586,702l-33,0C511,702 493,691 493,670l0,-426C493,174 437,123 356,123C275,123 220,174 220,244l0,426C220,691 202,702 160,702l-34,0C84,702 66,691 66,670l0,-436C66,80 173,-8 356,-8C539,-8 646,80 646,234l0,436C646,691 628,702 586,702z"/>
<glyph unicode="&#xD9;" horiz-adv-x="712" d="M282,911C242,911 222,908 222,897C222,885 229,883 326,777C337,765 354,752 401,752C425,752 432,756 432,767C432,778 413,803 367,884C355,905 322,911 282,911M586,702l-33,0C511,702 493,691 493,670l0,-426C493,174 437,123 356,123C275,123 220,174 220,244l0,426C220,691 202,702 160,702l-34,0C84,702 66,691 66,670l0,-436C66,80 173,-8 356,-8C539,-8 646,80 646,234l0,436C646,691 628,702 586,702z"/>
<glyph unicode="V" horiz-adv-x="617" d="M548,702l-31,0C488,702 465,694 458,673l-139,-433l-11,-35l-4,0l-11,35l-135,433C151,695 128,702 99,702l-33,0C24,702 5,694 5,680C5,675 7,669 9,662l216,-643C230,3 252,-2 281,-2l52,0C362,-2 384,3 389,19l216,643C607,669 608,675 608,680C608,694 590,702 548,702z"/>
<glyph unicode="W" horiz-adv-x="882" d="M824,702l-11,0C774,702 751,692 746,671l-78,-322C659,311 647,253 634,198C622,254 609,311 600,349l-79,332C517,697 498,702 466,702l-38,0C396,702 377,697 373,681l-82,-332C282,315 266,261 257,205C245,261 234,315 226,349l-75,322C146,692 123,702 84,702l-26,0C15,702 -4,692 -4,676C-4,672 -4,667 -2,661l158,-642C159,5 179,-2 211,-2l72,0C311,-2 334,5 338,19l85,346l17,68l16,-68l82,-346C541,5 565,-2 593,-2l73,0C694,-2 717,5 721,19l163,642C885,667 886,672 886,676C886,692 867,702 824,702z"/>
<glyph unicode="Y" horiz-adv-x="559" d="M466,702C437,702 415,698 406,683l-123,-214l-122,214C152,698 130,702 101,702l-43,0C14,702 -6,694 -6,682C-6,676 -2,667 4,657l199,-321l0,-306C203,9 221,-2 263,-2l34,0C339,-2 357,9 357,30l0,303l199,324C562,667 565,676 565,682C565,694 546,702 502,702z"/>
<glyph unicode="Z" horiz-adv-x="616" d="M543,700l-457,0C65,700 56,685 56,650l0,-31C56,584 65,569 86,569l278,0l-335,-470C28,97 27,93 27,89C27,62 49,0 66,0l484,0C571,0 580,15 580,50l0,31C580,116 571,131 550,131l-305,0l334,469C580,602 580,604 580,608C580,634 559,700 543,700z"/>
<glyph unicode="a" horiz-adv-x="545" d="M262,531C151,531 71,496 71,462C71,441 102,382 123,382C135,382 178,414 251,414C306,414 329,395 329,357l0,-33C75,324 42,220 42,138C42,56 82,-8 190,-8C282,-8 330,55 337,68C343,41 345,-1 377,-1C402,-1 489,7 489,31C489,52 477,73 477,176l0,188C477,461 420,531 262,531M329,227l0,-55C313,136 277,109 239,109C206,109 189,128 189,153C189,201 234,227 329,227z"/>
<glyph unicode="&#xE0;" horiz-adv-x="545" d="M199,734C159,734 139,731 139,720C139,708 146,706 243,600C254,588 271,575 318,575C342,575 349,579 349,590C349,601 330,626 284,707C272,728 239,734 199,734M262,531C151,531 71,496 71,462C71,441 102,382 123,382C135,382 178,414 251,414C306,414 329,395 329,357l0,-33C75,324 42,220 42,138C42,56 82,-8 190,-8C282,-8 330,55 337,68C343,41 345,-1 377,-1C402,-1 489,7 489,31C489,52 477,73 477,176l0,188C477,461 420,531 262,531M329,227l0,-55C313,136 277,109 239,109C206,109 189,128 189,153C189,201 234,227 329,227z"/>
<glyph unicode="*" horiz-adv-x="373" d="M182,708C161,708 152,699 152,678l0,-82l-77,25C70,622 65,623 61,623C40,623 33,600 33,586C33,575 40,568 55,563l75,-24l-56,-79C68,453 65,446 65,440C65,428 85,411 99,411C106,411 114,415 122,426l59,83l59,-83C247,416 255,411 263,411C276,411 296,428 296,440C296,446 294,453 288,460l-57,79l76,24C322,568 329,574 329,586C329,610 313,623 300,623C296,623 292,622 287,621l-75,-25l0,82C212,699 203,708 182,708z"/>
<glyph unicode="b" horiz-adv-x="569" d="M154,754l-28,0C84,754 66,743 66,722l0,-692C66,9 84,-2 126,-2l12,0C170,-2 190,2 196,24C200,38 203,53 206,67C229,24 278,-8 340,-8C448,-8 527,88 527,262C527,425 451,531 316,531C269,531 235,515 214,500l0,222C214,743 196,754 154,754M284,414C347,414 377,362 377,262C377,165 351,113 296,113C258,113 232,141 214,172l0,223C230,404 253,414 284,414z"/>
<glyph unicode="|" horiz-adv-x="250" d="M133,768l-15,0C83,768 68,759 68,738l0,-846C68,-129 83,-138 118,-138l15,0C168,-138 183,-129 183,-108l0,846C183,759 168,768 133,768z"/>
<glyph unicode="c" horiz-adv-x="485" d="M299,531C120,531 42,436 42,258C42,79 123,-8 294,-8C327,-8 469,6 469,62C469,82 439,138 417,138C413,138 407,135 399,132C380,123 348,109 301,109C225,109 194,159 194,262C194,364 227,414 307,414C349,414 376,401 394,392C402,388 408,385 412,385C429,385 465,443 465,462C465,508 370,531 299,531z"/>
<glyph unicode="," horiz-adv-x="198" d="M114,154l-19,0C53,154 35,137 35,110C35,12 13,-38 0,-70C-5,-83 -9,-94 -9,-103C-9,-119 18,-125 36,-125C80,-125 174,-2 174,110C174,135 156,154 114,154z"/>
<glyph unicode="d" horiz-adv-x="565" d="M443,754l-28,0C373,754 355,743 355,722l0,-222C334,515 300,531 253,531C118,531 42,425 42,262C42,88 121,-8 229,-8C291,-8 340,24 363,67C369,41 371,-1 403,-1C428,-1 515,7 515,31C515,52 503,73 503,176l0,546C503,743 485,754 443,754M285,414C316,414 339,404 355,395l0,-223C337,141 311,113 273,113C218,113 192,165 192,262C192,362 222,414 285,414z"/>
<glyph unicode="&#xB0;" horiz-adv-x="345" d="M170,708C97,708 38,648 38,575C38,502 97,443 170,443C243,443 303,502 303,575C303,648 243,708 170,708M170,646C207,646 238,614 238,575C238,536 207,505 170,505C133,505 103,536 103,575C103,614 133,646 170,646z"/>
<glyph unicode="e" horiz-adv-x="539" d="M285,531C142,531 42,455 42,258C42,97 122,-8 303,-8C359,-8 483,14 483,64C483,84 453,140 431,140C417,140 373,109 310,109C245,109 202,134 195,214l255,0C463,214 501,256 501,273C501,412 442,531 285,531M285,414C335,414 357,371 357,313l-162,0C207,390 243,414 285,414z"/>
<glyph unicode="&#xE9;" horiz-adv-x="539" d="M350,734C310,734 277,728 265,707C219,626 200,601 200,590C200,579 207,575 231,575C278,575 295,588 306,600C403,706 410,708 410,720C410,731 390,734 350,734M285,531C142,531 42,455 42,258C42,97 122,-8 303,-8C359,-8 483,14 483,64C483,84 453,140 431,140C417,140 373,109 310,109C245,109 202,134 195,214l255,0C463,214 501,256 501,273C501,412 442,531 285,531M285,414C335,414 357,371 357,313l-162,0C207,390 243,414 285,414z"/>
<glyph unicode="8" horiz-adv-x="535" d="M276,708C127,708 56,617 56,519C56,446 87,404 130,375C75,354 29,295 29,201C29,90 100,-8 271,-8C442,-8 506,100 506,192C506,302 458,357 396,385C446,412 483,450 483,534C483,628 406,708 276,708M271,591C307,591 339,566 339,524C339,488 321,456 285,432C238,451 202,473 202,524C202,568 235,591 271,591M233,326C298,302 356,279 356,200C356,158 327,109 269,109C211,109 178,150 178,210C178,267 199,301 233,326z"/>
<glyph unicode="&#x2013;" horiz-adv-x="500" d="M470,319l-440,0C9,319 0,304 0,269l0,-7C0,227 9,212 30,212l440,0C491,212 500,227 500,262l0,7C500,304 491,319 470,319z"/>
<glyph unicode="!" horiz-adv-x="294" d="M197,702l-43,0C112,702 94,691 94,670l0,-416C94,233 104,222 145,222l11,0C197,222 204,233 207,254C224,394 240,534 257,674C257,692 236,702 197,702M166,154l-32,0C92,154 74,143 74,122l0,-92C74,9 92,-2 134,-2l32,0C208,-2 226,9 226,30l0,92C226,143 208,154 166,154z"/>
<glyph unicode="f" horiz-adv-x="325" d="M225,760C131,760 79,709 79,598l0,-75l-18,0C40,523 31,508 31,473l0,-17C31,421 40,406 61,406l18,0l0,-376C79,9 97,-2 139,-2l28,0C209,-2 227,9 227,30l0,376l50,0C298,406 307,421 307,456l0,17C307,508 298,523 277,523l-50,0l0,77C227,630 237,643 263,643C273,643 287,639 294,639C314,639 325,703 325,711C325,757 257,760 225,760z"/>
<glyph unicode="5" horiz-adv-x="535" d="M425,700l-295,0C101,700 90,688 88,660l-19,-297C69,335 77,323 106,323l109,0C307,323 340,282 340,212C340,147 298,109 233,109C153,109 103,143 92,143C69,143 38,82 38,64C38,24 121,-8 234,-8C355,-8 490,47 490,216C490,388 390,440 239,440l-26,0l10,143l202,0C446,583 455,595 455,623l0,27C455,685 446,700 425,700z"/>
<glyph unicode="4" horiz-adv-x="535" d="M398,702l-27,0C342,702 322,700 310,683l-297,-437C12,244 11,240 11,235C11,208 31,142 48,142l262,0l0,-112C310,9 328,-2 370,-2l28,0C440,-2 458,9 458,30l0,112l38,0C517,142 526,157 526,192l0,17C526,244 517,259 496,259l-38,0l0,411C458,691 440,702 398,702M306,489l4,-1l0,-229l-150,0z"/>
<glyph unicode="g" horiz-adv-x="546" d="M267,531C148,531 52,482 52,353C52,279 84,231 133,204C95,184 73,155 73,121C73,88 88,60 116,46l-1,-4C56,19 24,-22 24,-74C24,-165 101,-212 262,-212C417,-212 520,-145 520,-42C520,58 442,88 365,103C290,116 217,116 217,149C217,167 237,176 278,176C392,176 482,228 482,353C482,372 475,397 466,409l2,4C477,411 504,409 511,409C527,409 535,423 535,456l0,17C535,508 526,523 505,523l-161,0C320,528 294,531 267,531M267,424C308,424 342,403 342,353C342,303 308,283 267,283C226,283 192,303 192,353C192,403 226,424 267,424M222,4C336,-4 376,-15 376,-46C376,-76 342,-95 273,-95C199,-95 168,-77 168,-50C168,-30 187,-8 222,4z"/>
<glyph unicode="h" horiz-adv-x="565" d="M154,754l-28,0C84,754 66,743 66,722l0,-692C66,9 84,-2 126,-2l28,0C196,-2 214,9 214,30l0,321C226,374 253,409 294,409C338,409 358,386 358,347l0,-317C358,9 376,-2 418,-2l28,0C488,-2 506,9 506,30l0,339C506,480 455,531 355,531C295,531 245,500 214,463l0,259C214,743 196,754 154,754z"/>
<glyph unicode="-" horiz-adv-x="320" d="M262,319l-204,0C37,319 28,304 28,269l0,-7C28,227 37,212 58,212l204,0C283,212 292,227 292,262l0,7C292,304 283,319 262,319z"/>
<glyph unicode="i" horiz-adv-x="265" d="M147,754l-28,0C77,754 59,743 59,722l0,-81C59,620 77,609 119,609l28,0C189,609 207,620 207,641l0,81C207,743 189,754 147,754M147,525l-28,0C77,525 59,514 59,493l0,-463C59,9 77,-2 119,-2l28,0C189,-2 207,9 207,30l0,463C207,514 189,525 147,525z"/>
<glyph unicode="j" horiz-adv-x="276" d="M158,754l-28,0C88,754 70,743 70,722l0,-81C70,620 88,609 130,609l28,0C200,609 218,620 218,641l0,81C218,743 200,754 158,754M158,525l-28,0C88,525 70,514 70,493l0,-545C70,-82 60,-95 34,-95C23,-95 10,-91 4,-91C-17,-91 -32,-137 -32,-160C-32,-199 -7,-212 72,-212C155,-212 218,-159 218,-50l0,543C218,514 200,525 158,525z"/>
<glyph unicode="l" horiz-adv-x="297" d="M151,754l-28,0C81,754 63,743 63,722l0,-568C63,43 115,-8 209,-8C240,-8 305,-5 305,41C305,49 294,113 274,113C268,113 256,109 247,109C221,109 211,122 211,152l0,570C211,743 193,754 151,754z"/>
<glyph unicode="m" horiz-adv-x="848" d="M636,531C569,531 512,493 482,455C462,507 419,531 350,531C285,531 231,493 202,455C196,480 194,520 162,520C137,520 50,512 50,488C50,468 62,447 62,347l0,-317C62,9 80,-2 122,-2l28,0C192,-2 210,9 210,30l0,321C222,374 248,409 289,409C333,409 348,386 348,347l0,-317C348,9 366,-2 408,-2l28,0C478,-2 496,9 496,30l0,322C508,373 532,409 575,409C619,409 634,386 634,347l0,-317C634,9 652,-2 694,-2l28,0C764,-2 782,9 782,30l0,339C782,480 736,531 636,531z"/>
<glyph unicode="n" horiz-adv-x="557" d="M351,531C286,531 231,493 202,455C196,480 194,520 162,520C137,520 50,512 50,488C50,468 62,447 62,347l0,-317C62,9 80,-2 122,-2l28,0C192,-2 210,9 210,30l0,321C222,374 249,409 290,409C334,409 350,386 350,347l0,-317C350,9 368,-2 410,-2l28,0C480,-2 498,9 498,30l0,339C498,480 451,531 351,531z"/>
<glyph unicode="9" horiz-adv-x="535" d="M264,707C151,707 29,645 29,483C29,321 152,271 226,271C255,271 287,275 326,296C293,197 206,128 109,99C98,96 96,92 96,78C96,58 112,-5 146,-5C160,-5 500,62 500,446C500,639 377,707 264,707M263,590C310,590 349,557 349,458C349,442 349,427 348,412C323,398 296,388 269,388C211,388 178,426 178,487C178,548 216,590 263,590z"/>
<glyph unicode="o" horiz-adv-x="569" d="M285,531C126,531 42,436 42,262C42,88 126,-8 285,-8C444,-8 527,88 527,262C527,436 444,531 285,531M285,414C349,414 377,362 377,262C377,162 349,109 285,109C221,109 192,162 192,262C192,362 221,414 285,414z"/>
<glyph unicode="1" horiz-adv-x="535" d="M312,704l-249,-46C46,655 37,645 37,630C37,602 43,546 69,546l136,20l0,-449l-133,0C51,117 42,102 42,67l0,-17C42,15 51,0 72,0l388,0C481,0 490,15 490,50l0,17C490,102 481,117 460,117l-107,0l0,563C353,692 328,704 312,704z"/>
<glyph unicode="p" horiz-adv-x="573" d="M344,531C282,531 233,499 210,456C204,480 202,520 170,520C145,520 58,512 58,488C58,468 70,447 70,347l0,-521C70,-195 88,-206 130,-206l28,0C200,-206 218,-195 218,-174l0,197C239,8 273,-8 320,-8C455,-8 531,98 531,261C531,435 452,531 344,531M300,410C355,410 381,358 381,261C381,161 351,109 288,109C257,109 234,119 218,128l0,223C236,382 262,410 300,410z"/>
<glyph unicode="." horiz-adv-x="198" d="M114,154l-32,0C40,154 22,143 22,122l0,-92C22,9 40,-2 82,-2l32,0C156,-2 174,9 174,30l0,92C174,143 156,154 114,154z"/>
<glyph unicode="q" horiz-adv-x="566" d="M234,531C123,531 42,435 42,261C42,98 120,-8 258,-8C305,-8 339,8 360,23l0,-197C360,-195 378,-206 420,-206l28,0C490,-206 508,-195 508,-174l0,667C508,514 490,525 448,525l-12,0C404,525 383,521 378,499l-10,-43C345,499 296,531 234,531M278,410C316,410 342,382 360,351l0,-223C344,119 321,109 290,109C224,109 192,161 192,261C192,358 220,410 278,410z"/>
<glyph unicode="?" horiz-adv-x="445" d="M220,708C142,708 32,686 32,627C32,606 67,545 95,545C109,545 149,576 207,576C258,576 281,555 281,520C281,487 236,448 194,399C159,357 126,309 126,251C126,230 140,222 175,222l23,0C231,222 245,228 251,249C269,345 437,377 437,530C437,640 354,708 220,708M202,154l-32,0C128,154 110,143 110,122l0,-92C110,9 128,-2 170,-2l32,0C244,-2 262,9 262,30l0,92C262,143 244,154 202,154z"/>
<glyph unicode="&#x2019;" horiz-adv-x="212" d="M142,757l-19,0C81,757 63,740 63,713C63,611 39,561 26,529C22,517 19,508 19,500C19,484 46,478 64,478C108,478 202,601 202,713C202,738 184,757 142,757z"/>
<glyph unicode="r" horiz-adv-x="366" d="M311,531C253,531 223,493 202,455C196,480 194,520 162,520C137,520 50,512 50,488C50,468 62,447 62,347l0,-317C62,9 80,-2 122,-2l28,0C192,-2 210,9 210,30l0,321C222,371 249,401 290,401C310,401 323,393 337,393C357,393 368,458 368,477C368,497 360,531 311,531z"/>
<glyph unicode="&#xAE;" horiz-adv-x="739" d="M368,708C170,708 10,548 10,350C10,152 170,-8 368,-8C566,-8 726,152 726,350C726,548 566,708 368,708M368,644C530,644 662,512 662,350C662,188 530,56 368,56C206,56 74,188 74,350C74,512 206,644 368,644M372,548l-109,0C248,548 241,541 241,526l0,-352C241,162 251,156 275,156l18,0C317,156 327,162 327,174l0,136l22,0C385,310 394,299 405,277l44,-109C453,159 465,156 482,156l23,0C527,156 538,160 538,167C538,170 537,173 535,178l-49,123C477,325 459,344 445,350l0,4C483,369 511,400 511,443C511,510 469,548 372,548M376,475C405,475 423,458 423,432C423,406 403,384 380,384l-53,0l0,91z"/>
<glyph unicode="s" horiz-adv-x="413" d="M225,531C114,531 43,471 43,367C43,267 108,236 157,217C202,199 243,189 243,151C243,124 223,109 185,109C132,109 99,137 84,137C64,137 31,86 31,60C31,17 122,-8 197,-8C322,-8 393,61 393,163C393,242 351,279 306,301C253,326 193,336 193,380C193,405 213,415 246,415C293,415 321,394 332,394C351,394 375,451 375,473C375,515 283,531 225,531z"/>
<glyph unicode="7" horiz-adv-x="535" d="M464,700l-396,0C47,700 38,685 38,650l0,-17C38,598 47,583 68,583l261,0l-248,-547C77,28 75,22 75,17C75,5 94,-2 134,-2l37,0C200,-2 222,2 229,18l263,579C493,600 494,605 494,610C494,641 475,700 464,700z"/>
<glyph unicode="6" horiz-adv-x="535" d="M387,704C373,704 33,637 33,253C33,60 156,-8 269,-8C382,-8 504,54 504,216C504,378 381,428 307,428C278,428 246,424 207,403C240,502 327,571 424,600C435,603 437,607 437,621C437,641 421,704 387,704M264,311C322,311 355,273 355,212C355,151 317,109 270,109C223,109 184,142 184,241C184,257 184,272 185,287C210,301 237,311 264,311z"/>
<glyph unicode=" " horiz-adv-x="240"/>
<glyph unicode="t" horiz-adv-x="342" d="M175,650l-31,0C111,650 93,639 90,618l-13,-95l-16,0C40,523 31,508 31,473l0,-17C31,421 40,406 61,406l16,0l0,-252C77,43 129,-8 223,-8C254,-8 319,-5 319,41C319,49 308,113 288,113C282,113 270,109 261,109C235,109 225,122 225,152l0,254l49,0C295,406 304,421 304,456l0,17C304,508 295,523 274,523l-49,0l0,95C225,639 210,650 175,650z"/>
<glyph unicode="3" horiz-adv-x="535" d="M251,708C152,708 57,685 57,635C57,608 87,559 107,559C125,559 149,590 225,590C279,590 306,558 306,509C306,459 268,426 203,426l-19,0C163,426 154,411 154,376l0,-18C154,323 163,308 184,308l28,0C296,308 329,272 329,206C329,144 289,109 230,109C149,109 103,150 85,150C62,150 36,93 36,74C36,12 178,-8 253,-8C386,-8 479,71 479,204C479,286 442,353 363,383l0,4C420,411 456,464 456,533C456,640 376,708 251,708z"/>
<glyph unicode="2" horiz-adv-x="535" d="M259,708C165,708 60,675 60,616C60,590 86,547 117,547C135,547 170,590 234,590C287,590 327,563 327,509C327,472 311,440 289,413l-253,-310C34,100 33,95 33,88C33,59 46,0 61,0l398,0C480,0 489,15 489,50l0,17C489,102 480,117 459,117l-231,0l188,232C452,393 477,448 477,512C477,626 400,708 259,708z"/>
<glyph unicode="u" horiz-adv-x="557" d="M435,525l-28,0C365,525 347,514 347,493l0,-321C335,149 308,114 267,114C223,114 207,137 207,176l0,317C207,514 189,525 147,525l-28,0C77,525 59,514 59,493l0,-339C59,43 106,-8 206,-8C271,-8 326,30 355,68C361,41 363,-1 395,-1C420,-1 507,7 507,31C507,52 495,73 495,176l0,317C495,514 477,525 435,525z"/>
<glyph unicode="v" horiz-adv-x="485" d="M416,525l-25,0C362,525 340,520 335,504l-59,-185C269,296 257,242 248,198l-4,0C234,242 223,295 216,319l-59,185C152,520 130,525 101,525l-33,0C26,525 7,517 7,503C7,498 9,492 11,485l159,-466C175,3 197,-2 226,-2l32,0C287,-2 309,3 314,19l159,466C475,492 476,498 476,503C476,517 458,525 416,525z"/>
<glyph unicode="x" horiz-adv-x="485" d="M415,525l-29,0C357,525 336,524 325,506l-62,-97C257,400 252,392 246,383l-15,24l-61,99C159,524 138,525 109,525l-32,0C34,525 14,518 14,507C14,500 18,492 25,481l142,-216l-151,-224C9,30 5,22 5,16C5,5 25,-2 68,-2l30,0C127,-2 148,-1 159,17l70,110C233,134 238,141 242,148l13,-21l69,-110C335,-1 356,-2 385,-2l32,0C460,-2 480,5 480,16C480,23 476,31 469,42l-148,224l146,216C474,493 478,501 478,507C478,518 458,525 415,525z"/>
<glyph unicode="y" horiz-adv-x="481" d="M417,525l-24,0C364,525 342,520 337,504l-59,-185C271,297 259,241 250,198l-4,0C237,241 225,296 218,319l-59,185C154,520 132,525 103,525l-32,0C29,525 10,517 10,503C10,498 12,492 14,485l165,-485l-63,-167C113,-174 112,-180 112,-185C112,-198 131,-206 172,-206l17,0C218,-206 239,-201 245,-185l229,670C476,492 477,498 477,503C477,517 459,525 417,525z"/>
<glyph unicode="0" horiz-adv-x="535" d="M267,708C119,708 30,575 30,350C30,125 119,-8 267,-8C415,-8 504,125 504,350C504,575 415,708 267,708M267,591C323,591 354,509 354,350C354,191 323,109 267,109C211,109 180,191 180,350C180,509 211,591 267,591z"/>
</font>

	<font horiz-adv-x="1000">
<!-- Copyright (c) 2011-2015, Omnibus-Type (www.omnibus-type.com omnibus.type@gmail.com) -->
<!-- Copyright: Copyright 2015 Adobe System Incorporated. All rights reserved. -->
<font-face font-family="Asap-Regular" units-per-em="1000" underline-position="-100" underline-thickness="50"/>
<missing-glyph horiz-adv-x="514" d="M7,0l500,0l0,700l-500,0M257,395l-171,255l340,0M56,605l171,-255l-171,-255M287,350l169,255l0,-510M87,50l169,255l171,-255z"/>
<glyph unicode="A" horiz-adv-x="613" d="M321,702l-29,0C272,702 256,698 252,686l-237,-657C13,23 12,19 12,15C12,4 25,-2 55,-2l5,0C80,-2 96,2 100,14l57,164l294,0l59,-164C514,2 530,-2 550,-2l8,0C588,-2 601,5 601,15C601,19 600,23 598,28l-237,658C357,698 341,702 321,702M307,610C310,591 313,570 319,552l105,-298l-239,0l105,298C297,571 301,591 305,610z"/>
<glyph unicode="B" horiz-adv-x="593" d="M306,700l-179,0C106,700 97,691 97,670l0,-640C97,9 106,0 127,0l172,0C467,0 560,62 560,201C560,333 420,367 420,367l0,4C478,387 530,456 530,523C530,628 455,700 306,700M297,624C397,624 439,589 439,515C439,450 382,398 301,398l-116,0l0,226M314,322C417,322 469,278 469,205C469,126 420,76 331,76l-146,0l0,246z"/>
<glyph unicode="C" horiz-adv-x="619" d="M381,706C167,706 57,589 57,350C57,106 160,-6 379,-6C496,-6 586,39 586,66C586,78 564,120 551,120C538,120 482,70 379,70C222,70 148,157 148,349C148,546 223,630 383,630C479,630 527,586 538,586C551,586 572,627 572,644C572,671 480,706 381,706z"/>
<glyph unicode="D" horiz-adv-x="695" d="M329,700l-202,0C106,700 97,691 97,670l0,-640C97,9 106,0 127,0l202,0C501,0 638,90 638,350C638,609 501,700 329,700M322,624C447,624 547,549 547,350C547,150 447,76 322,76l-137,0l0,548z"/>
<glyph unicode="E" horiz-adv-x="546" d="M476,700l-349,0C106,700 97,691 97,670l0,-640C97,9 106,0 127,0l350,0C491,0 497,9 497,30l0,16C497,67 491,76 477,76l-292,0l0,244l261,0C460,320 466,329 466,350l0,16C466,387 460,396 446,396l-261,0l0,228l291,0C490,624 496,633 496,654l0,16C496,691 490,700 476,700z"/>
<glyph unicode="&#xC9;" horiz-adv-x="546" d="M376,909C344,909 325,902 314,883C268,803 256,782 256,772C256,765 263,762 279,762C300,762 319,768 330,780C414,876 424,885 424,896C424,906 408,909 376,909M476,700l-349,0C106,700 97,691 97,670l0,-640C97,9 106,0 127,0l350,0C491,0 497,9 497,30l0,16C497,67 491,76 477,76l-292,0l0,244l261,0C460,320 466,329 466,350l0,16C466,387 460,396 446,396l-261,0l0,228l291,0C490,624 496,633 496,654l0,16C496,691 490,700 476,700z"/>
<glyph unicode="F" horiz-adv-x="503" d="M442,700l-315,0C106,700 97,691 97,670l0,-650C97,6 109,-2 137,-2l8,0C173,-2 185,6 185,20l0,300l239,0C438,320 444,329 444,350l0,16C444,387 438,396 424,396l-239,0l0,228l257,0C456,624 462,633 462,654l0,16C462,691 456,700 442,700z"/>
<glyph unicode="G" horiz-adv-x="672" d="M381,706C172,706 57,593 57,344C57,106 167,-6 366,-6C480,-6 589,10 589,66l0,265C589,352 580,361 559,361l-175,0C370,361 364,352 364,331l0,-16C364,294 370,285 384,285l117,0l0,-202C474,76 424,70 372,70C194,70 148,200 148,353C148,527 206,630 383,630C479,630 527,586 538,586C551,586 572,627 572,644C572,671 480,706 381,706z"/>
<glyph unicode="I" horiz-adv-x="282" d="M145,702l-8,0C109,702 97,694 97,680l0,-660C97,6 109,-2 137,-2l8,0C173,-2 185,6 185,20l0,660C185,694 173,702 145,702z"/>
<glyph unicode="J" horiz-adv-x="402" d="M279,702l-8,0C243,702 231,694 231,680l0,-485C231,109 190,72 91,72C59,72 36,81 28,81C12,81 6,30 6,26C6,-1 69,-6 107,-6C261,-6 319,79 319,205l0,475C319,694 307,702 279,702z"/>
<glyph unicode="L" horiz-adv-x="484" d="M145,702l-8,0C109,702 97,694 97,680l0,-650C97,9 106,0 127,0l333,0C474,0 480,9 480,30l0,16C480,67 474,76 460,76l-275,0l0,604C185,694 173,702 145,702z"/>
<glyph unicode="M" horiz-adv-x="843" d="M713,702l-33,0C656,702 644,695 638,684l-189,-334l-26,-57l-26,63l-189,328C202,695 190,702 166,702l-36,0C102,702 90,694 90,680l0,-660C90,6 102,-2 130,-2l7,0C165,-2 177,6 177,20l0,544l2,-4l202,-352C386,199 393,195 403,195l40,0C454,195 460,199 465,208l199,346l2,4l0,-538C666,6 678,-2 706,-2l7,0C741,-2 753,6 753,20l0,660C753,694 741,702 713,702z"/>
<glyph unicode="N" horiz-adv-x="719" d="M589,702l-7,0C554,702 542,694 542,680l0,-535l-30,56l-319,482C183,697 173,702 151,702l-21,0C102,702 90,694 90,680l0,-660C90,6 102,-2 130,-2l7,0C165,-2 177,6 177,20l0,541l27,-51l330,-498C540,3 550,-2 569,-2l20,0C617,-2 629,6 629,20l0,660C629,694 617,702 589,702z"/>
<glyph unicode="O" horiz-adv-x="731" d="M365,706C165,706 57,586 57,352C57,118 165,-6 365,-6C566,-6 674,118 674,352C674,586 566,706 365,706M365,630C506,630 583,536 583,352C583,168 506,70 365,70C224,70 148,168 148,352C148,536 224,630 365,630z"/>
<glyph unicode="P" horiz-adv-x="570" d="M318,700l-203,0C94,700 85,691 85,670l0,-650C85,6 97,-2 125,-2l8,0C161,-2 173,6 173,20l0,278l155,0C380,298 541,321 541,504C541,673 404,700 318,700M315,624C374,624 450,603 450,504C450,395 369,374 329,374l-156,0l0,250z"/>
<glyph unicode="Q" horiz-adv-x="731" d="M365,706C165,706 57,582 57,347C57,168 120,56 246,6C275,-6 630,-148 642,-148C665,-148 684,-88 684,-76C684,-69 679,-64 670,-61l-197,62l0,4C603,40 674,157 674,347C674,581 566,706 365,706M365,630C504,630 583,529 583,347C583,166 504,67 365,67C227,67 148,165 148,347C148,530 227,630 365,630z"/>
<glyph unicode="R" horiz-adv-x="610" d="M295,700l-168,0C106,700 97,691 97,670l0,-650C97,6 109,-2 137,-2l8,0C173,-2 185,6 185,20l0,288l90,0C353,308 394,288 424,210l76,-196C504,4 520,-2 540,-2l10,0C579,-2 592,4 592,14C592,17 591,22 589,28l-78,197C485,291 463,336 421,350l0,4C491,382 536,437 536,523C536,649 451,700 295,700M310,624C391,624 445,588 445,507C445,441 389,384 317,384l-132,0l0,240z"/>
<glyph unicode="S" horiz-adv-x="500" d="M272,706C138,706 50,629 50,521C50,390 139,357 224,324C301,294 375,268 375,188C375,117 320,70 244,70C141,70 85,121 72,121C61,121 37,83 37,67C37,40 127,-6 244,-6C379,-6 466,68 466,188C466,324 366,364 277,398C205,425 141,444 141,517C141,590 195,630 270,630C349,630 386,592 401,592C411,592 433,630 433,645C433,681 329,706 272,706z"/>
<glyph unicode="T" horiz-adv-x="549" d="M509,700l-469,0C26,700 20,691 20,670l0,-16C20,633 26,624 40,624l192,0l0,-604C232,6 244,-2 272,-2l8,0C308,-2 320,6 320,20l0,604l189,0C523,624 529,633 529,654l0,16C529,691 523,700 509,700z"/>
<glyph unicode="U" horiz-adv-x="712" d="M589,702l-8,0C553,702 541,694 541,680l0,-459C541,133 463,70 356,70C250,70 171,132 171,221l0,459C171,694 159,702 131,702l-8,0C95,702 83,694 83,680l0,-456C83,80 179,-6 356,-6C532,-6 629,80 629,224l0,456C629,694 617,702 589,702z"/>
<glyph unicode="V" horiz-adv-x="617" d="M553,702l-6,0C527,702 511,698 507,686l-185,-533l-11,-53l-3,0l-10,52l-185,534C109,698 93,702 73,702l-9,0C34,702 21,695 21,685C21,681 22,677 24,672l229,-658C257,2 273,-2 293,-2l31,0C344,-2 360,2 364,14l229,657C595,677 596,681 596,685C596,696 583,702 553,702z"/>
<glyph unicode="X" horiz-adv-x="611" d="M521,702l-6,0C497,702 479,699 472,688l-165,-242l-160,241C139,699 125,702 104,702l-14,0C56,702 44,696 44,685C44,680 47,674 52,667l200,-302l-224,-332C23,26 20,20 20,15C20,3 33,-2 66,-2l8,0C92,-2 110,1 117,12l186,276l184,-275C495,1 509,-2 530,-2l16,0C580,-2 592,4 592,15C592,20 589,26 584,33l-225,337l200,297C563,674 567,680 567,685C567,697 554,702 521,702z"/>
<glyph unicode="a" horiz-adv-x="545" d="M268,529C168,529 80,491 80,465C80,454 101,415 115,415C125,415 180,457 271,457C354,457 381,418 381,373l0,-47C228,324 49,313 49,144C49,41 123,-6 220,-6C295,-6 350,27 388,69C394,41 399,-1 423,-1C436,-1 477,3 477,22C477,27 465,66 465,148l0,224C465,471 392,529 268,529M381,254l0,-118C341,100 297,67 224,67C168,67 139,96 139,149C139,253 277,253 381,254z"/>
<glyph unicode="&#xE0;" horiz-adv-x="545" d="M203,732C171,732 155,729 155,719C155,708 165,699 249,603C260,591 279,585 300,585C316,585 323,588 323,595C323,605 311,626 265,706C254,725 235,732 203,732M268,529C168,529 80,491 80,465C80,454 101,415 115,415C125,415 180,457 271,457C354,457 381,418 381,373l0,-47C228,324 49,313 49,144C49,41 123,-6 220,-6C295,-6 350,27 388,69C394,41 399,-1 423,-1C436,-1 477,3 477,22C477,27 465,66 465,148l0,224C465,471 392,529 268,529M381,254l0,-118C341,100 297,67 224,67C168,67 139,96 139,149C139,253 277,253 381,254z"/>
<glyph unicode="b" horiz-adv-x="569" d="M129,752l-4,0C97,752 85,744 85,730l0,-710C85,6 94,-2 115,-2l4,0C133,-2 142,1 146,10C154,30 159,49 162,69C211,18 264,-6 321,-6C441,-6 515,106 515,262C515,435 431,529 312,529C250,529 208,508 169,478l0,252C169,744 157,752 129,752M293,455C382,453 427,388 427,269C427,140 383,67 304,67C260,67 210,91 169,136l0,274C205,440 250,455 293,455z"/>
<glyph unicode="c" horiz-adv-x="485" d="M289,529C174,529 52,473 52,264C52,71 136,-6 298,-6C385,-6 455,22 455,45C455,59 435,96 421,96C420,96 416,94 410,92C392,83 353,66 297,66C184,66 142,126 142,266C142,405 199,457 287,457C341,457 378,441 396,433C402,431 405,429 407,429C420,429 439,467 439,483C439,507 366,529 289,529z"/>
<glyph unicode="," horiz-adv-x="198" d="M104,108l-9,0C68,108 55,95 55,76C55,14 43,-33 21,-77C17,-85 12,-95 12,-101C12,-113 30,-116 41,-116C74,-116 144,-40 144,80C144,97 129,108 104,108z"/>
<glyph unicode="d" horiz-adv-x="565" d="M442,752l-4,0C410,752 398,744 398,730l0,-252C359,508 317,529 255,529C136,529 52,435 52,261C52,106 126,-6 246,-6C303,-6 356,18 405,69C411,41 416,-1 440,-1C453,-1 494,3 494,22C494,27 482,66 482,148l0,582C482,744 470,752 442,752M275,455C320,455 362,440 398,410l0,-274C357,91 307,67 263,67C184,67 140,140 140,269C140,388 185,453 275,455z"/>
<glyph unicode="&#xB0;" horiz-adv-x="345" d="M170,706C97,706 38,646 38,573C38,500 97,441 170,441C243,441 303,500 303,573C303,646 243,706 170,706M170,661C216,661 254,621 254,573C254,525 216,486 170,486C124,486 87,525 87,573C87,621 124,661 170,661z"/>
<glyph unicode="e" horiz-adv-x="539" d="M288,529C135,529 55,435 55,258C55,79 134,-6 300,-6C401,-6 480,34 480,58C480,69 459,108 445,108C435,108 386,66 299,66C200,66 153,116 145,227l316,0C473,227 494,256 494,268C494,438 425,529 288,529M285,457C365,457 405,404 405,299l-260,0C152,404 198,457 285,457z"/>
<glyph unicode="&#xE9;" horiz-adv-x="539" d="M350,732C318,732 299,725 288,706C242,626 230,605 230,595C230,588 237,585 253,585C274,585 293,591 304,603C388,699 398,708 398,719C398,729 382,732 350,732M288,529C135,529 55,435 55,258C55,79 134,-6 300,-6C401,-6 480,34 480,58C480,69 459,108 445,108C435,108 386,66 299,66C200,66 153,116 145,227l316,0C473,227 494,256 494,268C494,438 425,529 288,529M285,457C365,457 405,404 405,299l-260,0C152,404 198,457 285,457z"/>
<glyph unicode="&#xE8;" horiz-adv-x="539" d="M200,732C168,732 152,729 152,719C152,708 162,699 246,603C257,591 276,585 297,585C313,585 320,588 320,595C320,605 308,626 262,706C251,725 232,732 200,732M288,529C135,529 55,435 55,258C55,79 134,-6 300,-6C401,-6 480,34 480,58C480,69 459,108 445,108C435,108 386,66 299,66C200,66 153,116 145,227l316,0C473,227 494,256 494,268C494,438 425,529 288,529M285,457C365,457 405,404 405,299l-260,0C152,404 198,457 285,457z"/>
<glyph unicode="&#x2026;" horiz-adv-x="617" d="M108,108l-17,0C63,108 51,100 51,86l0,-66C51,6 63,-2 91,-2l17,0C136,-2 148,6 148,20l0,66C148,100 136,108 108,108M317,108l-17,0C272,108 260,100 260,86l0,-66C260,6 272,-2 300,-2l17,0C345,-2 357,6 357,20l0,66C357,100 345,108 317,108M525,108l-17,0C480,108 468,100 468,86l0,-66C468,6 480,-2 508,-2l17,0C553,-2 565,6 565,20l0,66C565,100 553,108 525,108z"/>
<glyph unicode="!" horiz-adv-x="294" d="M172,702l-20,0C124,702 112,694 112,680l0,-456C112,210 121,202 142,202l11,0C174,202 183,210 184,224l27,456C211,694 200,702 172,702M157,108l-17,0C112,108 100,100 100,86l0,-66C100,6 112,-2 140,-2l17,0C185,-2 197,6 197,20l0,66C197,100 185,108 157,108z"/>
<glyph unicode="f" horiz-adv-x="325" d="M237,756C187,756 108,737 108,618l0,-95l-40,0C54,523 48,514 48,493l0,-12C48,460 54,451 68,451l40,0l0,-431C108,6 120,-2 148,-2l4,0C180,-2 192,6 192,20l0,431l87,0C293,451 299,460 299,481l0,12C299,514 293,523 279,523l-87,0l0,87C192,676 217,684 246,684C275,684 280,679 289,679C303,679 310,718 310,726C310,753 264,756 237,756z"/>
<glyph unicode="g" horiz-adv-x="546" d="M265,529C136,529 68,457 68,366C68,306 97,253 154,225C118,200 98,166 98,121C98,83 114,58 138,39l-1,-2C86,16 46,-27 46,-88C46,-178 133,-212 253,-212C403,-212 481,-157 481,-61C481,31 406,49 330,59C250,69 169,69 169,133C169,183 204,200 264,202C393,202 461,274 461,366C461,397 452,428 435,452l1,2C455,452 474,451 506,451C520,451 526,460 526,481l0,12C526,514 520,523 506,523l-182,0C306,527 286,529 265,529M264,462C330,462 384,439 384,365C384,292 330,269 264,269C198,269 145,292 145,365C145,439 198,462 264,462M187,9C262,-14 401,5 401,-70C401,-120 357,-144 264,-144C200,-144 121,-133 121,-72C121,-30 151,-6 187,9z"/>
<glyph unicode="h" horiz-adv-x="565" d="M136,752l-4,0C104,752 92,744 92,730l0,-710C92,6 104,-2 132,-2l4,0C164,-2 176,6 176,20l0,366C176,386 227,456 302,456C370,456 404,418 404,359l0,-339C404,6 416,-2 444,-2l4,0C476,-2 488,6 488,20l0,347C488,503 393,529 329,529C265,529 211,495 176,460l0,270C176,744 164,752 136,752z"/>
<glyph unicode="-" horiz-adv-x="320" d="M253,300l-189,0C50,300 44,291 44,270l0,-10C44,239 50,230 64,230l189,0C267,230 273,239 273,260l0,10C273,291 267,300 253,300z"/>
<glyph unicode="i" horiz-adv-x="265" d="M139,752l-12,0C99,752 87,744 87,730l0,-59C87,657 99,649 127,649l12,0C167,649 179,657 179,671l0,59C179,744 167,752 139,752M135,525l-4,0C103,525 91,517 91,503l0,-483C91,6 103,-2 131,-2l4,0C163,-2 175,6 175,20l0,483C175,517 163,525 135,525z"/>
<glyph unicode="j" horiz-adv-x="276" d="M149,752l-12,0C109,752 97,744 97,730l0,-59C97,657 109,649 137,649l12,0C177,649 189,657 189,671l0,59C189,744 177,752 149,752M145,525l-4,0C113,525 101,517 101,503l0,-569C101,-126 76,-140 47,-140C18,-140 13,-135 4,-135C-10,-135 -17,-174 -17,-182C-17,-209 29,-212 56,-212C106,-212 185,-190 185,-74l0,577C185,517 173,525 145,525z"/>
<glyph unicode="l" horiz-adv-x="297" d="M126,752l-4,0C94,752 82,744 82,730l0,-598C82,16 161,-6 211,-6C238,-6 284,-3 284,24C284,32 277,71 263,71C254,71 249,66 220,66C191,66 166,80 166,140l0,590C166,744 154,752 126,752z"/>
<glyph unicode="m" horiz-adv-x="848" d="M616,529C553,529 495,491 457,446C429,514 363,529 314,529C250,529 195,492 162,454C156,480 151,520 127,520C114,520 73,516 73,497C73,492 85,453 85,371l0,-351C85,6 97,-2 125,-2l4,0C157,-2 169,6 169,20l0,367C169,387 218,456 291,456C355,456 387,418 387,359l0,-339C387,6 399,-2 427,-2l4,0C459,-2 471,6 471,20l0,346C471,372 471,379 470,386C486,405 532,456 593,456C657,456 689,418 689,359l0,-339C689,6 701,-2 729,-2l4,0C761,-2 773,6 773,20l0,347C773,503 680,529 616,529z"/>
<glyph unicode="n" horiz-adv-x="557" d="M319,529C263,529 205,501 163,454C157,480 152,520 128,520C115,520 74,516 74,497C74,492 86,453 86,371l0,-351C86,6 98,-2 126,-2l4,0C158,-2 170,6 170,20l0,366C203,429 251,456 296,456C361,456 398,420 398,359l0,-339C398,6 410,-2 438,-2l4,0C470,-2 482,6 482,20l0,347C482,468 421,529 319,529z"/>
<glyph unicode="o" horiz-adv-x="569" d="M287,529C138,529 55,432 55,259C55,87 136,-6 287,-6C436,-6 514,86 514,259C514,433 434,529 287,529M284,457C382,457 427,394 427,261C427,128 382,66 284,66C186,66 143,128 143,261C143,395 187,457 284,457z"/>
<glyph unicode="1" horiz-adv-x="535" d="M290,702l-232,-51C46,648 40,643 40,632C40,614 46,581 60,581l177,30l0,-539l-174,0C49,72 43,63 43,42l0,-12C43,9 49,0 63,0l406,0C483,0 489,9 489,30l0,12C489,63 483,72 469,72l-148,0l0,609C321,693 305,702 290,702z"/>
<glyph unicode="p" horiz-adv-x="573" d="M322,529C265,529 212,505 163,454C157,480 152,520 128,520C115,520 74,516 74,497C74,492 86,453 86,371l0,-557C86,-200 98,-208 126,-208l4,0C158,-208 170,-200 170,-186l0,231C209,15 251,-6 313,-6C432,-6 516,88 516,261C516,415 446,529 322,529M305,456C384,456 428,383 428,254C428,135 383,70 294,68C248,68 206,83 170,113l0,274C211,432 261,456 305,456z"/>
<glyph unicode="(" horiz-adv-x="301" d="M260,783C253,783 246,780 239,773C128,671 55,491 55,286C55,81 128,-99 239,-201C246,-208 254,-212 261,-212C276,-212 289,-194 289,-184C289,-178 286,-171 280,-164C192,-58 136,104 136,286C136,468 192,631 281,736C287,744 290,751 290,758C290,772 272,783 260,783z"/>
<glyph unicode=")" horiz-adv-x="301" d="M40,784C25,784 12,766 12,756C12,750 15,743 21,736C109,630 165,468 165,286C165,100 107,-65 16,-170C12,-175 9,-180 9,-185C9,-197 27,-211 41,-211C48,-211 55,-208 62,-201C173,-99 246,81 246,286C246,491 173,671 62,773C55,780 47,784 40,784z"/>
<glyph unicode="." horiz-adv-x="198" d="M108,108l-17,0C63,108 51,100 51,86l0,-66C51,6 63,-2 91,-2l17,0C136,-2 148,6 148,20l0,66C148,100 136,108 108,108z"/>
<glyph unicode="q" horiz-adv-x="566" d="M246,529C126,529 52,417 52,260C52,88 136,-6 255,-6C317,-6 359,15 398,45l0,-231C398,-200 410,-208 438,-208l4,0C470,-208 482,-200 482,-186l0,689C482,517 473,525 452,525l-4,0C434,525 425,522 421,513C413,493 409,474 405,454C356,505 303,529 246,529M263,456C307,456 357,432 398,387l0,-274C362,83 320,68 274,68C185,70 140,135 140,254C140,383 184,456 263,456z"/>
<glyph unicode="?" horiz-adv-x="445" d="M220,706C147,706 48,683 48,649C48,635 70,598 80,598C95,598 141,632 204,632C287,632 330,598 330,528C330,478 286,435 235,384C180,329 149,270 149,225C149,211 158,202 179,202l15,0C218,202 225,209 227,222C242,338 425,403 425,538C425,628 353,706 220,706M193,108l-17,0C148,108 136,100 136,86l0,-66C136,6 148,-2 176,-2l17,0C221,-2 233,6 233,20l0,66C233,100 221,108 193,108z"/>
<glyph unicode="&#x2019;" horiz-adv-x="212" d="M124,754l-9,0C88,754 75,741 75,722C75,660 63,613 41,569C37,561 32,551 32,545C32,533 50,530 61,530C94,530 164,606 164,726C164,743 149,754 124,754z"/>
<glyph unicode="r" horiz-adv-x="366" d="M283,529C241,529 201,502 167,454C161,480 156,520 132,520C119,520 78,516 78,497C78,492 90,453 90,371l0,-351C90,6 102,-2 130,-2l4,0C162,-2 174,6 174,20l0,366C174,386 214,447 266,447C300,447 308,436 321,436C333,436 341,471 341,490C341,512 322,529 283,529z"/>
<glyph unicode="s" horiz-adv-x="413" d="M213,530C116,530 47,469 47,385C47,310 78,267 186,235C261,213 286,190 286,145C286,90 252,64 188,64C117,64 77,104 70,104C56,104 35,65 35,54C35,31 103,-9 194,-9C293,-9 371,57 371,147C371,238 334,271 211,309C155,326 133,351 133,396C133,435 172,459 222,459C276,459 308,433 313,433C326,433 345,471 345,487C345,509 281,530 213,530z"/>
<glyph unicode="/" horiz-adv-x="370" d="M342,703l-4,0C321,703 310,696 303,680l-310,-721C-9,-46 -10,-51 -10,-56C-10,-68 -1,-76 16,-76l4,0C37,-76 46,-69 53,-53l310,721C365,673 366,678 366,683C366,695 359,703 342,703z"/>
<glyph unicode=" " horiz-adv-x="240"/>
<glyph unicode="t" horiz-adv-x="342" d="M161,650l-10,0C130,650 120,642 119,628l-12,-105l-50,0C43,523 37,514 37,493l0,-12C37,460 43,451 57,451l50,0l0,-319C107,16 186,-6 236,-6C263,-6 309,-3 309,24C309,32 302,71 288,71C279,71 274,66 245,66C216,66 191,80 191,140l0,311l84,0C289,451 295,460 295,481l0,12C295,514 289,523 275,523l-84,0l0,105C191,642 182,650 161,650z"/>
<glyph unicode="3" horiz-adv-x="535" d="M244,706C183,706 65,683 65,653C65,638 87,601 98,601C115,601 151,634 242,634C339,634 361,576 361,538C361,490 331,407 228,407l-29,0C185,407 179,398 179,377l0,-11C179,345 185,336 199,336l33,0C322,336 382,306 382,204C382,95 298,66 238,66C149,66 99,101 80,101C69,101 45,70 45,51C45,26 129,-6 246,-6C345,-6 469,49 469,203C469,308 403,371 343,387l0,4C396,412 446,459 446,529C446,648 363,706 244,706z"/>
<glyph unicode="2" horiz-adv-x="535" d="M254,706C193,706 74,675 74,633C74,618 96,583 106,583C123,583 165,634 256,634C333,634 381,594 381,530C381,488 376,468 313,385l-258,-324C52,58 51,51 51,44C51,25 59,0 71,0l382,0C467,0 473,9 473,30l0,11C473,62 467,71 453,71l-288,0l73,89C440,407 467,440 467,536C467,641 385,706 254,706z"/>
<glyph unicode="u" horiz-adv-x="557" d="M431,525l-4,0C399,525 387,517 387,503l0,-366C354,94 306,67 261,67C196,67 159,103 159,164l0,339C159,517 147,525 119,525l-4,0C87,525 75,517 75,503l0,-347C75,55 136,-6 238,-6C294,-6 352,22 394,69C400,41 405,-1 429,-1C442,-1 483,3 483,22C483,27 471,66 471,148l0,355C471,517 459,525 431,525z"/>
<glyph unicode="v" horiz-adv-x="485" d="M427,525l-3,0C403,525 387,521 383,509l-103,-321C268,150 258,99 250,65l-4,0C237,99 224,150 211,190l-102,319C105,521 89,525 69,525l-5,0C34,525 21,518 21,508C21,504 23,498 24,495l161,-481C189,2 205,-2 225,-2l35,0C280,-2 296,2 300,14l161,480C463,500 464,504 464,508C464,519 453,525 427,525z"/>
<glyph unicode="w" horiz-adv-x="747" d="M675,525C655,525 637,521 634,509l-84,-321C542,157 534,112 527,76C520,112 517,133 502,190l-84,318C414,521 399,525 379,525l-7,0C352,525 336,521 333,508l-83,-318C241,158 231,110 225,75C217,112 206,165 200,189l-84,320C113,521 96,525 76,525C43,525 30,518 30,508C30,504 33,494 35,488l132,-474C170,2 187,-2 207,-2l30,0C257,-2 274,2 277,14l82,318C365,354 370,383 374,409C378,383 383,354 389,331l80,-317C472,2 488,-2 508,-2l30,0C558,-2 575,2 578,14l134,480C714,500 715,504 715,508C715,519 702,525 675,525z"/>
<glyph unicode="x" horiz-adv-x="485" d="M412,525l-4,0C388,525 370,522 363,511l-96,-144C255,349 250,339 246,332C242,339 237,349 225,367l-95,143C122,522 108,525 87,525l-9,0C44,525 32,519 32,508C32,503 35,497 40,490l150,-222l-162,-235C23,26 20,20 20,15C20,3 32,-2 63,-2l3,0C86,-2 103,1 111,12l108,160C231,190 236,200 240,207C244,200 249,190 261,172l106,-159C375,1 389,-2 410,-2l9,0C453,-2 465,4 465,15C465,20 462,26 457,33l-162,237l151,220C451,497 454,503 454,508C454,520 442,525 412,525z"/>
</font>

	<font horiz-adv-x="1000">
<!-- Copyright (c) 2011-2015, Omnibus-Type (www.omnibus-type.com omnibus.type@gmail.com) -->
<!-- Copyright: Copyright 2015 Adobe System Incorporated. All rights reserved. -->
<font-face font-family="Asap-Italic" units-per-em="1000" underline-position="-100" underline-thickness="50"/>
<missing-glyph horiz-adv-x="515" d="M-20,0l500,0l74,700l-500,0M272,395l-144,255l340,0M93,605l144,-255l-198,-255M297,350l196,255l-54,-510M65,50l196,255l144,-255z"/>
<glyph unicode="A" horiz-adv-x="613" d="M357,702l-29,0C307,702 292,698 287,686l-305,-657C-21,23 -23,18 -23,14C-23,3 -10,-2 18,-2l5,0C43,-2 59,2 64,14l74,164l294,0l42,-164C477,2 493,-2 513,-2l8,0C555,-2 565,7 565,18C565,21 565,24 564,28l-168,658C393,698 377,702 357,702M334,610C334,591 335,571 340,552l73,-298l-239,0l137,298C319,570 326,591 332,610z"/>
<glyph unicode="B" horiz-adv-x="593" d="M335,700l-184,0C130,700 120,691 118,670C51,28 51,26 51,24C51,7 59,0 78,0l177,0C424,0 541,67 541,219C541,336 414,367 414,367l1,4C483,389 545,469 545,544C545,637 474,700 335,700M318,624C410,624 453,594 453,532C453,459 389,398 299,398l-121,0l23,226M304,322C400,322 450,284 450,220C450,132 388,76 295,76l-151,0l26,246z"/>
<glyph unicode="C" horiz-adv-x="619" d="M407,706C125,706 38,501 38,274C38,83 131,-6 326,-6C407,-6 511,14 519,52C523,70 526,103 526,107C526,118 521,118 519,118C510,118 443,70 334,70C195,70 128,138 128,286C128,481 200,630 392,630C488,630 539,586 550,586C563,586 590,629 590,645C590,672 504,706 407,706z"/>
<glyph unicode="D" horiz-adv-x="695" d="M365,700l-215,0C129,700 119,691 117,670C95,455 50,37 50,24C50,7 58,0 77,0l215,0C471,0 643,105 643,415C643,624 522,700 365,700M350,624C464,624 552,567 552,401C552,163 423,76 293,76l-150,0l57,548z"/>
<glyph unicode="G" horiz-adv-x="672" d="M418,706C196,706 52,572 52,275C52,84 149,-6 328,-6C442,-6 553,10 559,66C568,156 587,322 587,337C587,353 579,361 560,361l-176,0C359,361 359,330 359,307C359,292 364,285 376,285l118,0l-22,-202C445,76 394,70 342,70C190,70 144,165 144,288C144,501 228,630 404,630C506,630 551,586 562,586C575,586 602,629 602,645C602,672 515,706 418,706z"/>
<glyph unicode="I" horiz-adv-x="282" d="M181,702l-8,0C145,702 132,694 131,680l-69,-660C62,6 70,-2 100,-2l8,0C134,-2 148,6 150,20l69,660C219,694 210,702 181,702z"/>
<glyph unicode="J" horiz-adv-x="402" d="M316,702l-8,0C279,702 267,694 266,680l-51,-479C206,115 163,76 70,76C30,76 13,85 4,85C-5,85 -11,70 -11,26C-11,1 34,-6 77,-6C224,-6 291,79 304,205l50,475C354,694 345,702 316,702z"/>
<glyph unicode="K" horiz-adv-x="576" d="M515,702l-10,0C483,702 460,699 450,688l-277,-314l-4,0l32,306C201,694 192,702 163,702l-8,0C127,702 114,694 113,680l-69,-660C44,6 52,-2 82,-2l8,0C115,-2 130,6 132,20l33,313l4,0l252,-322C430,0 446,-2 475,-2l7,0C513,-2 526,1 527,12C527,16 526,20 520,28l-261,332l278,309C545,677 549,684 549,690C549,696 538,702 515,702z"/>
<glyph unicode="M" horiz-adv-x="843" d="M748,702l-33,0C691,702 679,695 672,684l-224,-334l-32,-57l-20,63l-154,328C237,695 225,702 201,702l-36,0C137,702 124,694 123,680l-69,-660C54,6 62,-2 92,-2l7,0C125,-2 139,6 141,20l57,544l3,-6l164,-350C369,199 375,195 385,195l40,0C436,195 443,199 449,208l234,346l3,4l-56,-538C630,6 638,-2 668,-2l7,0C701,-2 715,6 717,20l69,660C786,694 777,702 748,702z"/>
<glyph unicode="N" horiz-adv-x="719" d="M628,702l-7,0C593,702 580,694 579,680l-56,-535l-24,56l-275,482C216,697 206,702 184,702l-21,0C135,702 122,694 121,680l-69,-660C52,6 60,-2 90,-2l7,0C123,-2 137,6 139,20l57,541l21,-51l284,-498C506,3 516,-2 535,-2l20,0C581,-2 595,6 597,20l69,660C666,694 657,702 628,702z"/>
<glyph unicode="P" horiz-adv-x="570" d="M354,700l-203,0C130,700 120,691 118,670l-68,-650C50,6 58,-2 88,-2l8,0C122,-2 136,6 138,20l29,278l155,0C374,298 559,323 559,533C559,676 435,700 354,700M343,624C398,624 467,605 467,521C467,397 370,374 331,374l-156,0l26,250z"/>
<glyph unicode="R" horiz-adv-x="610" d="M319,700l-168,0C130,700 120,691 118,670l-68,-650C50,6 58,-2 88,-2l8,0C121,-2 136,6 138,20l30,288l90,0C336,308 375,288 397,210l55,-196C455,2 471,-2 491,-2l10,0C534,-2 545,5 545,17C545,20 544,24 543,28l-58,197C465,291 447,336 409,350l0,4C488,384 543,448 543,548C543,656 464,700 319,700M326,624C401,624 450,593 450,525C450,451 388,384 308,384l-132,0l25,240z"/>
<glyph unicode="T" horiz-adv-x="549" d="M545,700l-472,0C48,700 48,669 48,646C48,631 53,624 65,624l194,0l-63,-604C196,6 204,-2 234,-2l8,0C267,-2 282,6 284,20l63,604l190,0C562,624 562,655 562,678C562,693 557,700 545,700z"/>
<glyph unicode="U" horiz-adv-x="712" d="M623,702l-8,0C587,702 573,694 572,680l-48,-459C515,133 430,70 323,70C211,70 153,125 153,206C153,211 153,216 202,680C202,694 194,702 165,702l-8,0C129,702 115,694 114,680C65,213 64,203 64,193C64,68 151,-6 315,-6C491,-6 597,80 612,224l48,456C660,694 652,702 623,702z"/>
<glyph unicode="a" horiz-adv-x="545" d="M511,71C505,71 496,66 484,66C468,66 448,66 448,107C448,134 488,504 488,504C488,517 483,525 463,525l-6,0C429,525 422,504 412,475C390,496 347,529 285,529C136,529 40,396 40,210C40,36 142,-6 207,-6C265,-6 322,24 363,102l0,-10C363,24 396,-6 453,-6C471,-6 508,2 513,27C517,49 517,63 517,64C517,70 514,71 511,71M389,367C389,367 382,302 376,236C335,104 270,67 226,67C172,67 127,102 127,216C127,336 160,456 293,456C343,456 378,432 397,417C394,401 391,385 389,367z"/>
<glyph unicode="&#xE0;" horiz-adv-x="545" d="M309,585C324,585 332,588 332,594C332,603 323,622 274,706C263,725 244,732 212,732C181,732 165,729 164,720C164,708 173,700 258,603C268,591 289,585 309,585M511,71C505,71 496,66 484,66C468,66 448,66 448,107C448,134 488,504 488,504C488,517 483,525 463,525l-6,0C429,525 422,504 412,475C390,496 347,529 285,529C136,529 40,396 40,210C40,36 142,-6 207,-6C265,-6 322,24 363,102l0,-10C363,24 396,-6 453,-6C471,-6 508,2 513,27C517,49 517,63 517,64C517,70 514,71 511,71M389,367C389,367 382,302 376,236C335,104 270,67 226,67C172,67 127,102 127,216C127,336 160,456 293,456C343,456 378,432 397,417C394,401 391,385 389,367z"/>
<glyph unicode="b" horiz-adv-x="569" d="M159,752l-4,0C129,752 115,746 113,730l-75,-710C38,6 43,-2 63,-2l8,0C93,-2 106,23 113,48C136,26 182,-6 246,-6C407,-6 511,130 511,316C511,490 397,529 324,529C265,529 207,499 165,425l32,305C197,745 187,752 159,752M305,456C371,456 424,424 424,310C424,190 387,67 238,67C185,67 148,90 129,106C132,121 135,138 137,156l14,134C193,420 260,456 305,456z"/>
<glyph unicode="|" horiz-adv-x="250" d="M130,770l-10,0C103,770 96,762 96,748l0,-866C96,-132 103,-140 120,-140l10,0C147,-140 154,-132 154,-118l0,866C154,762 147,770 130,770z"/>
<glyph unicode="c" horiz-adv-x="485" d="M311,529C119,529 47,376 47,204C47,55 122,-6 263,-6C294,-6 397,0 405,40C409,60 410,83 410,85C410,96 408,97 404,97C400,97 392,93 380,88C358,79 322,66 270,66C176,66 134,110 134,210C134,391 208,457 301,457C347,457 374,447 390,439C402,432 409,427 412,427C429,427 451,464 451,477C451,498 402,529 311,529z"/>
<glyph unicode=":" horiz-adv-x="198" d="M135,525l-17,0C89,525 77,517 76,503l-7,-66C69,423 78,415 107,415l17,0C152,415 164,423 166,437l7,66C173,517 164,525 135,525M91,108l-17,0C45,108 33,100 32,86l-7,-66C25,6 34,-2 63,-2l17,0C108,-2 120,6 122,20l7,66C129,100 120,108 91,108z"/>
<glyph unicode="&#xA9;" horiz-adv-x="739" d="M369,708C170,708 10,551 10,352C10,153 170,-7 369,-7C568,-7 729,153 729,352C729,551 568,708 369,708M369,660C541,660 681,524 681,352C681,181 541,41 369,41C198,41 58,181 58,352C58,524 198,660 369,660M387,560C259,560 193,490 193,347C193,202 255,135 385,135C455,135 509,162 509,178C509,185 496,210 488,210C480,210 447,180 385,180C292,180 247,232 247,347C247,464 292,515 388,515C445,515 474,488 480,488C488,488 501,513 501,523C501,539 446,560 387,560z"/>
<glyph unicode="d" horiz-adv-x="565" d="M538,71C532,71 523,66 511,66C495,66 475,66 475,107C475,137 539,730 539,730C539,745 529,752 501,752l-4,0C471,752 457,746 455,730C455,730 443,625 428,484C403,505 362,529 292,529C140,529 41,396 41,210C41,36 156,-6 229,-6C289,-6 348,24 390,102l0,-10C390,24 423,-6 480,-6C498,-6 535,2 540,27C544,49 544,63 544,64C544,70 541,71 538,71M402,234C360,103 293,67 248,67C173,67 129,102 129,216C129,336 166,456 304,456C365,456 401,434 421,418z"/>
<glyph unicode="e" horiz-adv-x="539" d="M219,213C355,213 489,257 489,396C489,447 447,529 321,529C125,529 46,380 46,201C46,22 173,-6 272,-6C315,-6 427,11 436,58C440,79 441,100 441,103C441,115 438,115 434,115C420,115 369,66 279,66C191,66 133,99 133,210l0,10C154,216 182,213 219,213M312,457C369,457 402,425 402,388C402,285 238,285 209,285l-71,0C151,378 196,457 312,457z"/>
<glyph unicode="&#xE9;" horiz-adv-x="539" d="M294,585C314,585 335,591 347,603C442,700 453,709 453,720C453,729 437,732 406,732C374,732 354,725 341,706C284,623 272,603 272,594C272,588 279,585 294,585M219,213C355,213 489,257 489,396C489,447 447,529 321,529C125,529 46,380 46,201C46,22 173,-6 272,-6C315,-6 427,11 436,58C440,79 441,100 441,103C441,115 438,115 434,115C420,115 369,66 279,66C191,66 133,99 133,210l0,10C154,216 182,213 219,213M312,457C369,457 402,425 402,388C402,285 238,285 209,285l-71,0C151,378 196,457 312,457z"/>
<glyph unicode="8" horiz-adv-x="535" d="M306,706C195,706 97,639 97,510C97,447 126,405 165,380C75,345 33,265 33,171C33,50 118,-6 229,-6C354,-6 469,68 469,231C469,319 423,355 367,381C426,407 481,460 481,555C481,655 404,706 306,706M298,634C353,634 397,608 397,547C397,480 351,438 297,408C235,429 181,450 181,517C181,599 235,634 298,634M229,350C301,321 383,305 383,219C383,116 309,66 237,66C172,66 120,104 120,181C120,262 160,312 229,350z"/>
<glyph unicode="f" horiz-adv-x="325" d="M278,756C225,756 146,740 135,624l-10,-101l-40,0C61,523 60,489 60,478C60,462 63,451 77,451l40,0l-45,-431C72,5 82,-2 110,-2l4,0C140,-2 154,5 156,20l45,431l66,0C305,451 312,500 312,504C312,518 308,523 296,523l-87,0l9,91C224,674 247,684 278,684C308,684 319,677 323,677C335,677 349,714 349,725C349,755 295,756 278,756z"/>
<glyph unicode="5" horiz-adv-x="535" d="M448,700l-267,0C160,700 148,691 145,670C98,377 97,375 97,372C97,357 104,350 123,350l85,0C316,350 374,309 374,232C374,117 283,66 203,66C118,66 64,103 57,103C50,103 42,98 42,44C42,0 169,-6 196,-6C310,-6 460,44 460,241C460,380 340,422 239,422l-52,0l35,206l218,0C464,628 465,662 465,673C465,689 462,700 448,700z"/>
<glyph unicode="4" horiz-adv-x="535" d="M435,702l-16,0C405,702 392,697 384,688l-377,-459C5,227 4,220 4,212C4,193 12,167 22,167l304,0l-15,-147C311,5 317,-2 339,-2l23,0C380,-2 392,6 394,20l15,147l68,0C501,167 502,201 502,212C502,228 499,239 485,239l-68,0l46,441C463,693 458,702 435,702M363,559l4,-2l-33,-318l-229,0z"/>
<glyph unicode="g" horiz-adv-x="546" d="M475,525l-6,0C441,525 434,504 424,475C401,496 356,529 292,529C140,529 42,396 42,210C42,41 147,0 214,0C274,0 333,30 375,108C361,-71 310,-140 213,-140C109,-140 67,-86 55,-86C50,-86 41,-92 41,-141C41,-171 111,-212 213,-212C356,-212 432,-140 457,99l43,405C500,517 495,525 475,525M401,367l-13,-123C346,110 278,73 233,73C176,73 129,107 129,216C129,336 163,456 300,456C352,456 389,432 409,417C406,401 403,385 401,367z"/>
<glyph unicode="h" horiz-adv-x="565" d="M175,752l-4,0C145,752 131,746 129,730l-75,-711C54,7 65,-2 92,-2l4,0C120,-2 136,6 138,20l29,277C211,425 282,456 326,456C377,456 402,430 402,379C402,360 374,125 374,92C374,24 407,-6 464,-6C482,-6 519,2 524,27C528,49 528,63 528,64C528,70 525,71 522,71C516,71 507,66 495,66C479,66 459,66 459,107C459,128 488,382 488,399C488,473 453,529 356,529C296,529 234,503 181,432l32,298C213,745 203,752 175,752z"/>
<glyph unicode="-" horiz-adv-x="320" d="M259,301l-194,0C41,301 40,267 40,256C40,240 43,229 57,229l194,0C275,229 276,263 276,274C276,290 273,301 259,301z"/>
<glyph unicode="i" horiz-adv-x="265" d="M178,752l-12,0C140,752 126,746 124,730l-6,-59C118,653 134,649 160,649l12,0C200,649 210,658 210,671l6,59C216,746 206,752 178,752M150,525l-4,0C120,525 106,519 104,503C102,503 63,130 63,89C63,23 96,-6 152,-6C170,-6 207,2 212,27C216,49 216,63 216,64C216,70 213,71 210,71C204,71 195,66 183,66C167,66 148,66 148,107C148,137 188,503 188,503C188,518 178,525 150,525z"/>
<glyph unicode="j" horiz-adv-x="276" d="M194,752l-12,0C156,752 142,746 140,730l-6,-59C134,653 150,649 176,649l12,0C216,649 226,658 226,671l6,59C232,746 222,752 194,752M166,525l-4,0C136,525 122,518 120,503l-60,-569C54,-126 31,-140 0,-140C-35,-140 -48,-123 -56,-123C-61,-123 -67,-129 -67,-171C-67,-195 -35,-212 11,-212C62,-212 131,-190 143,-74l61,577C204,518 194,525 166,525z"/>
<glyph unicode="k" horiz-adv-x="521" d="M175,752l-4,0C142,752 130,744 129,730l-75,-710C54,6 63,-2 92,-2l4,0C124,-2 136,6 138,20l24,228l4,0l196,-237C371,-1 393,-2 415,-2l4,0C452,-2 464,1 464,14C464,17 462,21 457,28l-201,244l218,220C482,500 486,508 486,513C486,519 475,525 452,525l-4,0C426,525 404,522 394,511l-224,-228l-4,0l47,447C213,744 204,752 175,752z"/>
<glyph unicode="l" horiz-adv-x="297" d="M187,752l-4,0C157,752 143,746 141,730C141,727 76,137 76,92C76,24 109,-6 166,-6C184,-6 221,2 226,27C230,49 230,63 230,64C230,70 227,71 224,71C218,71 209,66 197,66C181,66 161,66 161,107C161,137 225,730 225,730C225,745 215,752 187,752z"/>
<glyph unicode="m" horiz-adv-x="848" d="M797,71C791,71 782,66 770,66C754,66 734,66 734,107C734,128 763,382 763,399C763,473 728,529 631,529C569,529 505,496 460,421C453,484 416,529 329,529C269,529 206,499 162,428l0,19C162,475 156,514 136,514C129,514 80,513 80,491C80,485 81,481 81,457C81,410 37,19 37,19C37,7 48,-2 75,-2l4,0C105,-2 119,6 121,20l30,287C195,426 258,456 299,456C350,456 375,430 375,379C375,363 338,19 338,19C338,7 349,-2 376,-2l4,0C406,-2 421,6 422,20l30,285C496,425 560,456 601,456C652,456 677,430 677,379C677,360 649,125 649,92C649,24 682,-6 739,-6C757,-6 794,2 799,27C803,49 803,63 803,64C803,70 800,71 797,71z"/>
<glyph unicode="n" horiz-adv-x="557" d="M505,71C499,71 490,66 478,66C462,66 442,66 442,107C442,128 471,382 471,399C471,473 436,529 339,529C278,529 216,502 162,428l0,19C162,482 156,514 136,514C129,514 80,513 80,491C80,485 81,481 81,457C81,410 37,19 37,19C37,7 48,-2 75,-2l4,0C105,-2 119,6 121,20C121,20 137,166 150,295C193,424 265,456 309,456C360,456 385,430 385,379C385,360 357,125 357,92C357,24 390,-6 447,-6C465,-6 502,2 507,27C511,49 511,63 511,64C511,70 508,71 505,71z"/>
<glyph unicode="9" horiz-adv-x="535" d="M308,706C179,706 69,614 69,472C69,364 142,296 240,296C301,296 345,311 378,329C334,217 245,119 103,63C94,59 94,53 94,50C94,35 101,-1 121,-1C190,-1 497,182 497,504C497,632 435,706 308,706M295,634C352,634 413,608 413,499C413,460 407,431 401,402C371,386 325,368 272,368C211,368 154,399 154,482C154,588 237,634 295,634z"/>
<glyph unicode="o" horiz-adv-x="569" d="M309,529C121,529 45,375 45,209C45,69 116,-6 252,-6C412,-6 510,105 510,312C510,453 440,529 309,529M298,457C383,457 423,410 423,310C423,151 364,66 257,66C172,66 131,113 131,212C131,362 188,457 298,457z"/>
<glyph unicode="1" horiz-adv-x="535" d="M326,702l-237,-51C72,647 68,640 68,621C68,603 72,581 84,581l180,30l-57,-539l-174,0C9,72 8,38 8,27C8,11 11,0 25,0l407,0C456,0 457,34 457,45C457,61 454,72 440,72l-149,0l64,609C355,693 342,702 326,702z"/>
<glyph unicode="p" horiz-adv-x="573" d="M329,529C268,529 210,500 168,427l0,12C168,511 149,514 142,514C135,514 86,513 86,491C86,485 87,481 87,457C87,448 85,421 81,383l-59,-570C22,-199 33,-208 60,-208l4,0C89,-208 104,-200 106,-186l24,233C152,27 198,-6 265,-6C418,-6 516,129 516,318C516,488 402,529 329,529M253,66C194,66 153,97 137,111C143,174 149,236 155,290C197,419 265,456 310,456C376,456 429,422 429,312C429,190 394,66 253,66z"/>
<glyph unicode="(" horiz-adv-x="301" d="M312,783C305,783 297,780 290,773C150,656 50,437 50,196C50,29 102,-114 187,-201C194,-208 201,-212 208,-212C226,-212 239,-190 239,-181C239,-176 237,-170 232,-164C168,-77 131,49 131,192C131,410 211,613 328,736C335,744 339,753 339,760C339,773 323,783 312,783z"/>
<glyph unicode=")" horiz-adv-x="301" d="M92,784C74,784 61,762 61,753C61,748 63,742 68,736C131,648 169,523 169,379C169,193 104,-29 -31,-170C-37,-176 -40,-180 -40,-186C-40,-198 -25,-211 -11,-211C-4,-211 3,-208 10,-201C149,-84 250,134 250,376C250,543 198,686 113,773C106,780 99,784 92,784z"/>
<glyph unicode="r" horiz-adv-x="366" d="M319,529C267,529 217,491 186,428C187,440 188,452 188,464C188,491 182,514 161,514C154,514 105,513 105,491C105,482 106,475 106,457C106,433 102,389 100,373l-38,-354C62,7 73,-2 100,-2l4,0C130,-2 144,6 146,20C146,20 161,160 174,288C201,387 249,446 301,446C327,446 332,435 340,435C352,435 369,466 369,491C369,522 339,529 319,529z"/>
<glyph unicode="s" horiz-adv-x="413" d="M233,529C134,529 53,472 53,386C53,329 88,292 164,249C216,220 270,197 270,147C270,103 228,66 161,66C112,66 77,86 58,98C51,102 46,105 43,105C35,105 17,70 17,53C17,32 62,-6 157,-6C287,-6 356,65 356,150C356,211 320,252 232,300C174,331 141,349 141,390C141,431 176,457 234,457C272,457 295,446 311,438C316,435 322,433 325,433C336,433 359,465 359,483C359,515 282,529 233,529z"/>
<glyph unicode="/" horiz-adv-x="370" d="M396,702l-24,0C357,702 350,694 343,682l-395,-741C-54,-63 -55,-67 -55,-69C-55,-75 -51,-79 -41,-79l23,0C-4,-79 4,-72 11,-59l396,741C409,686 410,689 410,692C410,698 405,702 396,702z"/>
<glyph unicode=" " horiz-adv-x="240"/>
<glyph unicode="t" horiz-adv-x="342" d="M185,650l-4,0C155,650 142,644 140,628l-12,-105l-50,0C54,523 53,489 53,478C53,462 56,451 70,451l50,0C120,451 85,134 85,104C85,8 152,-6 197,-6C226,-6 259,2 265,27C269,44 270,63 270,64C270,71 266,73 263,73C256,73 249,66 218,66C192,66 170,77 170,123C170,143 204,451 204,451l64,0C306,451 313,500 313,504C313,518 309,523 297,523l-85,0l11,105C223,643 213,650 185,650z"/>
<glyph unicode="2" horiz-adv-x="535" d="M291,706C229,706 103,674 103,631C103,615 120,583 130,583C147,583 194,634 285,634C357,634 400,599 400,543C400,503 380,455 333,403l-309,-342C22,59 22,56 22,52C22,34 32,0 42,0l374,0C440,0 441,34 441,45C441,61 438,72 424,72l-288,0l270,298C464,434 487,484 487,556C487,646 413,706 291,706z"/>
<glyph unicode="u" horiz-adv-x="557" d="M515,71C509,71 500,66 488,66C472,66 452,66 452,107C452,137 491,503 491,503C491,518 481,525 453,525l-4,0C423,525 409,519 407,503l-28,-266C336,100 263,67 219,67C168,67 143,93 143,144C143,158 179,503 179,503C179,518 169,525 141,525l-4,0C111,525 97,519 95,503C95,503 57,137 57,124C57,50 92,-6 189,-6C250,-6 314,23 367,102l0,-10C367,24 400,-6 457,-6C475,-6 512,2 517,27C521,49 521,63 521,64C521,70 518,71 515,71z"/>
<glyph unicode="v" horiz-adv-x="485" d="M442,525l-1,0C426,525 405,521 400,509l-115,-264C265,200 246,149 228,104l-5,0C212,151 202,198 191,245l-59,264C129,521 113,525 93,525l-8,0C55,525 41,518 40,508C40,507 40,506 42,497l110,-483C155,2 171,-2 191,-2l35,0C246,-2 262,2 267,14l212,480C482,501 483,505 483,510C483,520 470,525 442,525z"/>
<glyph unicode="x" horiz-adv-x="485" d="M434,525l-4,0C412,525 394,522 386,511l-133,-167l-96,166C150,522 136,525 115,525l-11,0C70,525 58,519 56,508C56,503 58,497 63,490l126,-222l-187,-235C-4,24 -7,19 -7,13C-7,2 6,-2 37,-2l4,0C59,-2 76,1 85,12l147,184l105,-183C344,1 358,-2 379,-2l11,0C424,-2 436,4 438,15C438,20 436,26 431,33l-137,237l175,220C475,498 478,504 478,510C478,520 465,525 434,525z"/>
<glyph unicode="y" horiz-adv-x="481" d="M447,525l-3,0C423,525 407,521 401,509l-134,-282C255,202 242,173 232,148l-2,0l-21,79l-77,282C129,521 114,525 94,525l-8,0C56,525 41,518 41,508C41,502 42,498 169,28l-105,-203C59,-184 57,-191 57,-193C57,-203 67,-208 88,-208l15,0C127,-208 145,-202 152,-187l329,681C484,501 485,504 485,509C485,519 474,525 447,525z"/>
<glyph unicode="0" horiz-adv-x="535" d="M303,706C176,706 34,576 34,269C34,78 122,-6 228,-6C355,-6 499,123 499,427C499,621 410,706 303,706M295,634C357,634 414,577 414,425C414,159 310,66 236,66C174,66 119,121 119,270C119,540 220,634 295,634z"/>
</font>

	<font horiz-adv-x="1000">
<!-- Copyright (c) 2011-2015, Omnibus-Type (www.omnibus-type.com omnibus.type@gmail.com) -->
<!-- Copyright: Copyright 2015 Adobe System Incorporated. All rights reserved. -->
<font-face font-family="Asap-Medium" units-per-em="1000" underline-position="-100" underline-thickness="50"/>
<missing-glyph horiz-adv-x="514" d="M7,0l500,0l0,700l-500,0M257,395l-171,255l340,0M56,605l171,-255l-171,-255M287,350l169,255l0,-510M87,50l169,255l171,-255z"/>
<glyph unicode="A" horiz-adv-x="613" d="M328,702l-43,0C259,702 239,697 234,683l-226,-648C6,28 4,23 4,18C4,5 21,-2 58,-2l28,0C108,-2 125,3 130,17l46,137l257,0l47,-137C484,3 504,-2 530,-2l31,0C594,-2 608,6 608,18C608,23 607,28 605,34l-226,649C374,697 354,702 328,702M308,550C312,529 315,508 322,488l74,-222l-182,0l76,222C297,508 301,529 305,550z"/>
<glyph unicode="&#xC0;" horiz-adv-x="613" d="M235,910C198,910 179,907 179,897C179,885 187,880 279,778C290,766 308,756 346,756C367,756 374,759 374,769C374,779 357,803 311,884C300,904 272,910 235,910M328,702l-43,0C259,702 239,697 234,683l-226,-648C6,28 4,23 4,18C4,5 21,-2 58,-2l28,0C108,-2 125,3 130,17l46,137l257,0l47,-137C484,3 504,-2 530,-2l31,0C594,-2 608,6 608,18C608,23 607,28 605,34l-226,649C374,697 354,702 328,702M308,550C312,529 315,508 322,488l74,-222l-182,0l76,222C297,508 301,529 305,550z"/>
<glyph unicode="B" horiz-adv-x="593" d="M306,700l-191,0C90,700 79,689 79,664l0,-628C79,11 90,0 115,0l198,0C481,0 567,70 567,202C567,299 481,357 430,367l-1,4C489,393 538,455 538,523C538,628 468,700 306,700M295,590C370,590 404,561 404,503C404,453 363,413 295,413l-86,0l0,177M308,302C389,302 433,269 433,209C433,148 394,111 324,111l-115,0l0,191z"/>
<glyph unicode="C" horiz-adv-x="619" d="M379,707C160,707 49,590 49,351C49,105 153,-7 375,-7C469,-7 593,24 593,72C593,88 567,147 542,147C528,147 473,104 375,104C245,104 183,185 183,350C183,517 245,596 378,596C474,596 516,559 528,559C549,559 582,616 582,640C582,677 471,707 379,707z"/>
<glyph unicode="D" horiz-adv-x="695" d="M331,700l-216,0C90,700 79,689 79,664l0,-628C79,11 90,0 115,0l216,0C525,0 647,112 647,350C647,588 525,700 331,700M329,589C443,589 514,513 514,350C514,187 443,111 329,111l-119,0l0,478z"/>
<glyph unicode="E" horiz-adv-x="546" d="M475,700l-360,0C90,700 79,689 79,664l0,-628C79,11 90,0 115,0l361,0C495,0 503,13 503,43l0,25C503,98 495,111 476,111l-267,0l0,192l238,0C466,303 473,316 473,346l0,25C473,401 466,414 447,414l-238,0l0,175l266,0C494,589 502,602 502,632l0,25C502,687 494,700 475,700z"/>
<glyph unicode="&#xC9;" horiz-adv-x="546" d="M375,910C338,910 310,904 298,884C252,803 236,779 236,769C236,759 243,756 264,756C302,756 319,766 330,778C423,880 431,885 431,897C431,907 412,910 375,910M475,700l-360,0C90,700 79,689 79,664l0,-628C79,11 90,0 115,0l361,0C495,0 503,13 503,43l0,25C503,98 495,111 476,111l-267,0l0,192l238,0C466,303 473,316 473,346l0,25C473,401 466,414 447,414l-238,0l0,175l266,0C494,589 502,602 502,632l0,25C502,687 494,700 475,700z"/>
<glyph unicode="&#xCA;" horiz-adv-x="546" d="M303,895l-16,0C262,895 242,892 232,875l-62,-97C166,772 164,766 164,762C164,754 171,750 185,750l15,0C223,750 242,754 255,771l40,52l41,-53C347,755 368,750 391,750l15,0C420,750 427,755 427,762C427,767 425,772 421,778l-62,97C348,892 329,895 303,895M475,700l-360,0C90,700 79,689 79,664l0,-628C79,11 90,0 115,0l361,0C495,0 503,13 503,43l0,25C503,98 495,111 476,111l-267,0l0,192l238,0C466,303 473,316 473,346l0,25C473,401 466,414 447,414l-238,0l0,175l266,0C494,589 502,602 502,632l0,25C502,687 494,700 475,700z"/>
<glyph unicode="F" horiz-adv-x="503" d="M442,700l-327,0C90,700 79,689 79,664l0,-638C79,8 95,-2 132,-2l24,0C193,-2 209,8 209,26l0,276l222,0C450,302 458,315 458,345l0,25C458,400 450,413 431,413l-222,0l0,176l233,0C461,589 469,602 469,632l0,25C469,687 461,700 442,700z"/>
<glyph unicode="G" horiz-adv-x="672" d="M379,707C162,707 49,591 49,349C49,105 156,-7 371,-7C457,-7 600,5 600,69l0,273C600,368 589,379 564,379l-193,0C352,379 345,366 345,336l0,-26C345,280 352,267 371,267l98,0l0,-154C442,107 410,104 373,104C235,104 183,201 183,352C183,510 239,596 378,596C474,596 520,559 531,559C552,559 585,616 585,640C585,677 471,707 379,707z"/>
<glyph unicode="I" horiz-adv-x="282" d="M153,703l-25,0C91,703 75,692 75,674l0,-648C75,8 91,-3 128,-3l25,0C190,-3 206,8 206,26l0,648C206,692 190,703 153,703z"/>
<glyph unicode="L" horiz-adv-x="484" d="M156,702l-24,0C95,702 79,692 79,674l0,-638C79,11 90,0 115,0l336,0C469,0 477,13 477,43l0,25C477,98 469,111 451,111l-242,0l0,563C209,692 193,702 156,702z"/>
<glyph unicode="M" horiz-adv-x="843" d="M714,702l-45,0C642,702 623,695 614,678l-177,-310l-15,-31l-14,32l-176,309C223,695 204,702 177,702l-47,0C93,702 77,692 77,674l0,-648C77,8 93,-2 130,-2l21,0C188,-2 203,8 203,26l0,462l4,-1l165,-293C380,183 390,177 406,177l33,0C455,177 465,183 472,194l165,291l3,0l0,-459C640,8 656,-2 693,-2l21,0C751,-2 767,8 767,26l0,648C767,692 751,702 714,702z"/>
<glyph unicode="N" horiz-adv-x="719" d="M590,702l-21,0C532,702 516,692 516,674l0,-449l-28,46l-266,407C209,698 191,702 165,702l-35,0C93,702 77,692 77,674l0,-648C77,8 93,-2 130,-2l21,0C188,-2 203,8 203,26l0,455l24,-39l277,-422C516,2 533,-2 559,-2l31,0C627,-2 643,8 643,26l0,648C643,692 627,702 590,702z"/>
<glyph unicode="O" horiz-adv-x="731" d="M365,707C161,707 49,583 49,351C49,119 161,-7 365,-7C569,-7 681,119 681,351C681,583 569,707 365,707M366,596C485,596 548,511 548,351C548,190 485,104 366,104C246,104 183,190 183,351C183,511 246,596 366,596z"/>
<glyph unicode="P" horiz-adv-x="570" d="M319,700l-208,0C86,700 75,689 75,664l0,-638C75,8 91,-2 128,-2l24,0C189,-2 205,8 205,26l0,249l124,0C382,275 551,300 551,489C551,674 407,700 319,700M313,589C359,589 418,571 418,489C418,404 357,387 318,387l-113,0l0,202z"/>
<glyph unicode="Q" horiz-adv-x="731" d="M365,707C161,707 49,581 49,349C49,174 113,60 234,12C503,-94 630,-147 641,-147C670,-147 691,-70 691,-56C691,-49 686,-43 677,-40l-169,58l0,4C620,67 681,179 681,349C681,581 569,707 365,707M366,596C484,596 548,509 548,349C548,188 484,100 366,100C247,100 183,187 183,349C183,509 247,596 366,596z"/>
<glyph unicode="R" horiz-adv-x="610" d="M301,700l-186,0C90,700 79,689 79,664l0,-638C79,8 95,-2 132,-2l24,0C193,-2 209,8 209,26l0,260l58,0C336,286 361,266 385,213l78,-196C468,3 489,-2 514,-2l30,0C581,-2 598,5 598,17C598,21 596,26 593,34l-84,211C489,297 462,338 430,349l0,4C500,380 547,436 547,516C547,638 467,700 301,700M310,589C373,589 413,557 413,498C413,444 370,399 317,399l-108,0l0,190z"/>
<glyph unicode="S" horiz-adv-x="500" d="M272,707C149,707 41,642 41,511C41,387 115,345 190,312C266,279 343,258 343,191C343,129 290,104 235,104C147,104 95,152 79,152C62,152 27,101 27,75C27,44 113,-7 252,-7C370,-7 476,55 476,203C476,339 376,379 292,413C229,438 174,457 174,519C174,560 203,596 280,596C352,596 385,566 399,566C418,566 445,618 445,641C445,675 360,707 272,707z"/>
<glyph unicode="T" horiz-adv-x="549" d="M510,700l-472,0C20,700 12,687 12,657l0,-25C12,602 20,589 38,589l171,0l0,-563C209,8 225,-2 262,-2l25,0C324,-2 340,8 340,26l0,563l170,0C528,589 536,602 536,632l0,25C536,687 528,700 510,700z"/>
<glyph unicode="U" horiz-adv-x="712" d="M587,702l-24,0C526,702 510,692 510,674l0,-438C510,159 446,104 356,104C266,104 202,159 202,236l0,438C202,692 186,702 149,702l-24,0C88,702 72,692 72,674l0,-444C72,80 175,-7 356,-7C536,-7 640,80 640,230l0,444C640,692 624,702 587,702z"/>
<glyph unicode="V" horiz-adv-x="617" d="M550,702l-22,0C502,702 482,695 476,678l-156,-470l-11,-41l-3,0l-11,41l-153,470C136,696 115,702 90,702l-25,0C28,702 11,694 11,682C11,677 13,672 15,666l220,-649C240,3 260,-2 286,-2l44,0C356,-2 375,3 380,17l221,648C603,672 604,677 604,682C604,695 588,702 550,702z"/>
<glyph unicode="a" horiz-adv-x="545" d="M265,530C158,530 75,494 75,463C75,446 102,394 121,394C132,394 179,430 259,430C324,430 348,403 348,363l0,-38C131,324 45,254 45,140C45,51 97,-7 201,-7C287,-7 338,45 356,68C362,41 365,-1 394,-1C415,-1 485,6 485,28C485,43 473,70 473,166l0,201C473,465 410,530 265,530M348,237l0,-78C323,123 284,94 234,94C192,94 171,116 171,152C171,220 250,236 348,237z"/>
<glyph unicode="&#xE0;" horiz-adv-x="545" d="M201,733C164,733 145,730 145,720C145,708 153,703 245,601C256,589 274,579 312,579C333,579 340,582 340,592C340,602 323,626 277,707C266,727 238,733 201,733M265,530C158,530 75,494 75,463C75,446 102,394 121,394C132,394 179,430 259,430C324,430 348,403 348,363l0,-38C131,324 45,254 45,140C45,51 97,-7 201,-7C287,-7 338,45 356,68C362,41 365,-1 394,-1C415,-1 485,6 485,28C485,43 473,70 473,166l0,201C473,465 410,530 265,530M348,237l0,-78C323,123 284,94 234,94C192,94 171,116 171,152C171,220 250,236 348,237z"/>
<glyph unicode="b" horiz-adv-x="569" d="M145,753l-19,0C89,753 73,743 73,725l0,-699C73,8 88,-2 122,-2l9,0C157,-2 173,2 178,19C183,35 187,52 190,68C223,22 273,-7 333,-7C446,-7 523,95 523,262C523,429 444,530 315,530C262,530 225,512 198,492l0,233C198,743 182,753 145,753M288,429C360,428 396,371 396,265C396,156 363,96 299,96C259,96 224,123 198,159l0,241C221,417 252,429 288,429z"/>
<glyph unicode="c" horiz-adv-x="485" d="M296,530C140,530 46,449 46,260C46,76 128,-7 296,-7C348,-7 464,12 464,56C464,74 438,123 419,123C416,123 411,120 403,117C385,108 350,93 300,93C210,93 175,147 175,263C175,379 217,430 300,430C346,430 377,416 395,407C402,404 407,401 411,401C426,401 456,452 456,470C456,508 369,530 296,530z"/>
<glyph unicode=":" horiz-adv-x="198" d="M112,525l-26,0C49,525 33,515 33,497l0,-83C33,396 49,386 86,386l26,0C149,386 165,396 165,414l0,83C165,515 149,525 112,525M112,137l-26,0C49,137 33,127 33,109l0,-83C33,8 49,-2 86,-2l26,0C149,-2 165,8 165,26l0,83C165,127 149,137 112,137z"/>
<glyph unicode="d" horiz-adv-x="565" d="M443,753l-19,0C387,753 371,743 371,725l0,-233C343,512 307,530 254,530C125,530 46,429 46,262C46,95 123,-7 236,-7C296,-7 346,22 379,68C385,41 388,-1 417,-1C437,-1 508,6 508,28C508,43 496,70 496,166l0,559C496,743 480,753 443,753M281,429C317,429 347,417 371,400l0,-241C344,123 309,96 269,96C206,96 173,156 173,265C173,371 208,428 281,429z"/>
<glyph unicode="&#xB0;" horiz-adv-x="345" d="M170,707C97,707 38,647 38,574C38,501 97,442 170,442C243,442 303,501 303,574C303,647 243,707 170,707M170,651C210,651 244,617 244,574C244,532 210,498 170,498C130,498 97,532 97,574C97,617 130,651 170,651z"/>
<glyph unicode="e" horiz-adv-x="539" d="M286,530C140,530 47,448 47,258C47,90 127,-7 302,-7C375,-7 482,21 482,62C482,79 455,128 436,128C424,128 378,93 306,93C229,93 184,127 177,219l277,0C467,219 499,256 499,271C499,421 436,530 286,530M285,430C346,430 375,383 375,308l-198,0C187,395 227,430 285,430z"/>
<glyph unicode="&#xE9;" horiz-adv-x="539" d="M350,733C313,733 285,727 273,707C227,626 211,602 211,592C211,582 218,579 239,579C277,579 294,589 305,601C398,703 406,708 406,720C406,730 387,733 350,733M286,530C140,530 47,448 47,258C47,90 127,-7 302,-7C375,-7 482,21 482,62C482,79 455,128 436,128C424,128 378,93 306,93C229,93 184,127 177,219l277,0C467,219 499,256 499,271C499,421 436,530 286,530M285,430C346,430 375,383 375,308l-198,0C187,395 227,430 285,430z"/>
<glyph unicode="&#xE8;" horiz-adv-x="539" d="M198,733C161,733 142,730 142,720C142,708 150,703 242,601C253,589 271,579 309,579C330,579 337,582 337,592C337,602 320,626 274,707C263,727 235,733 198,733M286,530C140,530 47,448 47,258C47,90 127,-7 302,-7C375,-7 482,21 482,62C482,79 455,128 436,128C424,128 378,93 306,93C229,93 184,127 177,219l277,0C467,219 499,256 499,271C499,421 436,530 286,530M285,430C346,430 375,383 375,308l-198,0C187,395 227,430 285,430z"/>
<glyph unicode="f" horiz-adv-x="325" d="M229,759C151,759 89,719 89,605l0,-82l-26,0C45,523 37,510 37,480l0,-15C37,435 45,422 63,422l26,0l0,-396C89,8 105,-2 142,-2l19,0C198,-2 214,8 214,26l0,396l64,0C296,422 304,435 304,465l0,15C304,510 296,523 278,523l-64,0l0,81C214,647 230,658 257,658C274,658 284,654 292,654C310,654 319,708 319,716C319,756 259,759 229,759z"/>
<glyph unicode="g" horiz-adv-x="546" d="M266,530C144,530 58,473 58,358C58,289 89,239 141,212C103,190 82,159 82,121C82,86 97,59 124,43l-1,-3C67,18 32,-24 32,-79C32,-170 113,-212 259,-212C412,-212 506,-149 506,-49C506,48 429,74 352,87C275,99 200,99 200,143C200,173 225,185 273,185C392,185 474,245 474,358C474,381 467,408 455,425l1,3C469,426 493,424 509,424C524,424 532,436 532,465l0,15C532,510 524,523 505,523l-168,0C315,528 291,530 266,530M266,438C316,438 357,416 357,357C357,299 316,278 266,278C216,278 175,299 175,357C175,416 216,438 266,438M209,6C309,-8 385,-8 385,-55C385,-92 348,-113 270,-113C199,-113 151,-97 151,-58C151,-30 174,-7 209,6z"/>
<glyph unicode="h" horiz-adv-x="565" d="M147,753l-19,0C91,753 75,743 75,725l0,-699C75,8 91,-2 128,-2l19,0C184,-2 200,8 200,26l0,338C207,378 243,426 296,426C349,426 374,398 374,351l0,-325C374,8 390,-2 427,-2l19,0C483,-2 499,8 499,26l0,342C499,488 432,530 345,530C284,530 232,498 200,462l0,263C200,743 184,753 147,753z"/>
<glyph unicode="-" horiz-adv-x="320" d="M259,312l-199,0C42,312 34,299 34,269l0,-8C34,231 42,219 60,219l199,0C277,219 285,231 285,261l0,8C285,299 277,312 259,312z"/>
<glyph unicode="i" horiz-adv-x="265" d="M144,753l-22,0C85,753 69,743 69,725l0,-73C69,633 85,624 122,624l22,0C181,624 197,633 197,652l0,73C197,743 181,753 144,753M143,525l-19,0C87,525 71,515 71,497l0,-471C71,8 87,-2 124,-2l19,0C180,-2 196,8 196,26l0,471C196,515 180,525 143,525z"/>
<glyph unicode="j" horiz-adv-x="276" d="M155,753l-22,0C96,753 80,743 80,725l0,-73C80,633 96,624 133,624l22,0C192,624 208,633 208,652l0,73C208,743 192,753 155,753M154,525l-20,0C98,525 82,515 82,497l0,-554C82,-98 66,-111 39,-111C22,-111 12,-107 4,-107C-14,-107 -26,-150 -26,-168C-26,-203 7,-212 67,-212C138,-212 206,-170 206,-59l0,556C206,515 191,525 154,525z"/>
<glyph unicode="l" horiz-adv-x="297" d="M142,753l-19,0C86,753 70,743 70,725l0,-579C70,33 132,-7 210,-7C239,-7 297,-4 297,35C297,43 288,98 270,98C263,98 254,93 237,93C210,93 195,107 195,148l0,577C195,743 179,753 142,753z"/>
<glyph unicode="m" horiz-adv-x="848" d="M628,530C563,530 505,492 473,452C450,510 398,530 337,530C272,530 218,493 187,455C181,480 178,520 149,520C128,520 58,513 58,491C58,477 70,449 70,356l0,-330C70,8 86,-2 123,-2l19,0C179,-2 195,8 195,26l0,338C202,379 237,426 289,426C341,426 362,398 362,351l0,-325C362,8 378,-2 415,-2l19,0C471,-2 487,8 487,26l0,339C501,386 532,426 581,426C632,426 654,398 654,351l0,-325C654,8 669,-2 706,-2l20,0C763,-2 778,8 778,26l0,342C778,488 715,530 628,530z"/>
<glyph unicode="n" horiz-adv-x="557" d="M340,530C278,530 222,496 188,455C182,480 179,520 150,520C129,520 59,513 59,491C59,477 71,449 71,356l0,-330C71,8 87,-2 124,-2l19,0C180,-2 196,8 196,26l0,338C215,394 250,426 292,426C344,426 368,398 368,351l0,-325C368,8 384,-2 420,-2l20,0C477,-2 492,8 492,26l0,342C492,476 440,530 340,530z"/>
<glyph unicode="o" horiz-adv-x="569" d="M286,530C131,530 47,435 47,261C47,88 130,-7 286,-7C441,-7 523,87 523,261C523,435 441,530 286,530M284,430C361,430 395,374 395,262C395,150 361,93 284,93C208,93 174,150 174,262C174,374 208,430 284,430z"/>
<glyph unicode="1" horiz-adv-x="535" d="M304,703l-243,-48C46,652 38,644 38,631C38,606 44,559 66,559l151,23l0,-481l-148,0C50,101 42,88 42,58l0,-15C42,13 50,0 69,0l394,0C482,0 490,13 490,43l0,15C490,88 482,101 463,101l-122,0l0,579C341,692 320,703 304,703z"/>
<glyph unicode="p" horiz-adv-x="573" d="M336,530C276,530 226,501 193,455C187,480 184,520 155,520C134,520 64,513 64,491C64,477 76,449 76,356l0,-534C76,-197 92,-207 129,-207l19,0C185,-207 201,-197 201,-178l0,209C228,11 265,-7 318,-7C447,-7 526,94 526,261C526,428 450,530 336,530M302,427C366,427 399,367 399,258C399,152 363,95 291,94C254,94 224,106 201,123l0,241C227,400 262,427 302,427z"/>
<glyph unicode="q" horiz-adv-x="566" d="M239,530C124,530 46,428 46,261C46,94 126,-7 257,-7C310,-7 347,11 374,31l0,-209C374,-197 390,-207 427,-207l19,0C483,-207 499,-197 499,-178l0,675C499,515 484,525 450,525l-9,0C415,525 399,521 394,504C389,488 385,471 382,455C349,501 299,530 239,530M272,427C313,427 347,400 374,364l0,-241C350,106 321,94 284,94C210,95 173,152 173,258C173,367 207,427 272,427z"/>
<glyph unicode="?" horiz-adv-x="445" d="M220,707C144,707 38,685 38,635C38,617 68,564 90,564C104,564 146,596 206,596C269,596 299,571 299,523C299,484 254,443 209,394C167,347 135,295 135,242C135,223 147,215 177,215l20,0C226,215 238,221 242,239C259,342 433,386 433,533C433,636 354,707 220,707M198,137l-26,0C135,137 119,127 119,109l0,-83C119,8 135,-2 172,-2l26,0C235,-2 251,8 251,26l0,83C251,127 235,137 198,137z"/>
<glyph unicode="&#x2019;" horiz-adv-x="212" d="M136,756l-16,0C84,756 68,740 68,716C68,629 48,580 32,544C28,533 24,524 24,516C24,502 48,497 63,497C103,497 188,603 188,718C188,740 172,756 136,756z"/>
<glyph unicode="r" horiz-adv-x="366" d="M301,530C248,530 215,496 189,455C183,480 180,520 151,520C130,520 60,513 60,491C60,477 72,449 72,356l0,-330C72,8 88,-2 125,-2l19,0C181,-2 197,8 197,26l0,338C204,376 236,418 281,418C306,418 317,409 331,409C348,409 358,463 358,482C358,502 346,530 301,530z"/>
<glyph unicode="s" horiz-adv-x="413" d="M220,531C114,531 44,470 44,374C44,283 97,247 167,224C223,204 258,189 258,149C258,112 233,93 186,93C126,93 91,125 78,125C61,125 32,78 32,58C32,22 115,-8 195,-8C311,-8 385,60 385,157C385,241 344,276 271,304C217,326 171,341 171,386C171,416 198,431 237,431C286,431 316,408 325,408C341,408 364,458 364,478C364,513 282,531 220,531z"/>
<glyph unicode="/" horiz-adv-x="370" d="M347,702l-16,0C305,702 287,695 279,675l-298,-721C-21,-52 -22,-57 -22,-60C-22,-71 -10,-78 14,-78l17,0C57,-78 74,-70 82,-50l298,721C382,676 383,681 383,685C383,696 372,702 347,702z"/>
<glyph unicode=" " horiz-adv-x="240"/>
<glyph unicode="t" horiz-adv-x="342" d="M170,650l-24,0C118,650 103,640 100,622l-12,-99l-29,0C41,523 33,510 33,480l0,-15C33,435 41,422 59,422l29,0l0,-276C88,33 150,-7 228,-7C257,-7 315,-4 315,35C315,43 306,98 288,98C281,98 271,93 255,93C228,93 212,107 212,148l0,274l62,0C293,422 301,435 301,465l0,15C301,510 293,523 274,523l-62,0l0,99C212,640 200,650 170,650z"/>
<glyph unicode="3" horiz-adv-x="535" d="M248,707C163,707 60,684 60,642C60,619 87,574 103,574C121,574 149,606 231,606C301,606 326,565 326,520C326,470 291,419 212,419l-23,0C171,419 163,406 163,376l0,-15C163,331 171,318 189,318l30,0C305,318 348,284 348,205C348,126 292,93 233,93C149,93 101,132 83,132C64,132 39,85 39,66C39,17 160,-7 250,-7C371,-7 475,63 475,204C475,294 428,360 355,384l0,4C411,411 452,462 452,532C452,643 371,707 248,707z"/>
<glyph unicode="2" horiz-adv-x="535" d="M258,707C176,707 66,675 66,622C66,600 90,560 113,560C131,560 169,606 242,606C304,606 347,574 347,517C347,478 335,450 298,403l-255,-315C41,85 40,79 40,72C40,47 51,0 65,0l392,0C476,0 484,13 484,43l0,15C484,87 476,100 457,100l-251,0l146,180C448,398 474,445 474,521C474,631 395,707 258,707z"/>
<glyph unicode="u" horiz-adv-x="557" d="M434,525l-20,0C378,525 362,515 362,497l0,-338C342,129 307,97 265,97C213,97 190,125 190,172l0,325C190,515 174,525 137,525l-19,0C81,525 65,515 65,497l0,-342C65,47 117,-7 218,-7C280,-7 336,27 369,68C375,41 378,-1 408,-1C428,-1 498,6 498,28C498,43 486,70 486,166l0,331C486,515 471,525 434,525z"/>
<glyph unicode="v" horiz-adv-x="485" d="M420,525l-17,0C377,525 357,520 352,506l-75,-235C269,243 257,190 249,150l-4,0C235,190 223,242 214,272l-75,234C135,520 115,525 89,525l-23,0C29,525 12,517 12,505C12,500 14,494 16,489l159,-472C180,3 200,-2 226,-2l33,0C284,-2 304,3 309,17l160,471C471,495 472,500 472,505C472,518 456,525 420,525z"/>
<glyph unicode="w" horiz-adv-x="747" d="M666,525C636,525 618,519 614,506l-75,-285C534,200 529,175 523,152C519,174 515,190 508,220l-71,285C433,519 413,525 388,525l-18,0C342,525 324,519 321,505l-71,-281C244,202 238,175 233,152C227,175 222,203 217,221l-74,285C139,520 120,525 78,525C39,525 22,516 22,502C22,498 23,491 25,485l128,-468C157,4 175,-2 203,-2l42,0C270,-2 291,4 294,17l67,267C365,301 369,321 373,340C377,321 381,301 385,284l68,-267C457,4 475,-2 503,-2l42,0C570,-2 591,4 594,17l124,471C719,494 720,498 720,502C720,516 704,525 666,525z"/>
<glyph unicode="x" horiz-adv-x="485" d="M413,525l-19,0C368,525 348,523 338,508l-74,-114C256,381 251,373 246,364C241,372 236,381 228,392l-73,115C145,523 127,525 101,525l-24,0C37,525 20,518 20,507C20,501 24,494 30,484l145,-218l-155,-228C14,29 10,21 10,16C10,4 27,-2 66,-2l20,0C112,-2 131,0 141,15l84,128C232,154 237,162 241,169l16,-26l82,-127C349,0 368,-2 394,-2l23,0C457,-2 474,5 474,16C474,22 470,29 464,39l-153,228l148,218C465,494 469,502 469,507C469,519 452,525 413,525z"/>
</font>

	<font horiz-adv-x="1000">
<!-- Copyright 1992, 1994, 1997, 2000, 2004 Adobe Systems Incorporated. All rights reserved. Myriad is either a registered trademark or a trademark of Adobe Systems Incorporated in the United States and/or other countries. -->
<font-face font-family="GillSans-Bold" units-per-em="1000" underline-position="-100" underline-thickness="50"/>
<missing-glyph horiz-adv-x="500" d="M0,0l500,0l0,700l-500,0M250,395l-170,255l340,0M280,350l170,255l0,-510M80,50l170,255l170,-255M50,605l170,-255l-170,-255z"/>
<glyph unicode=" " horiz-adv-x="212"/>
</font>
</svg>
